<?xml version="1.0" standalone="no"?>
<!DOCTYPE svg PUBLIC "-//W3C//DTD SVG 1.1//EN" "http://www.w3.org/Graphics/SVG/1.1/DTD/svg11.dtd" >
<svg xmlns="http://www.w3.org/2000/svg">
<defs>
  <font id="tabler-icons" horiz-adv-x="1010">
    <font-face font-family="tabler-icons"
      units-per-em="1000" ascent="986.5"
      descent="100" />
    <missing-glyph horiz-adv-x="0" />
    <glyph glyph-name="ad"
      unicode="&#xEA02;"
      horiz-adv-x="1010" d="M509 723C770 723 812 723 820 722C825 721 831 719 835 718S846 714 850 712S861 706 866 703S877 694 882 689S893 678 896 673S903 661 905 658S909 649 910 645S914 633 915 628C916 621 916 589 916 400S916 179 915 172C914 167 912 160 910 155S907 144 905 141S899 132 896 127S887 116 882 111S871 100 866 97S854 90 850 88S839 83 835 82S825 79 820 78C812 77 770 77 510 77C259 77 208 77 201 78C196 79 189 81 185 82S173 86 168 89S155 96 151 99S140 108 136 112S128 121 125 125S118 136 116 140S111 151 110 155S106 167 105 172C104 179 104 211 104 404V628L107 638C109 644 112 652 114 657S121 670 124 674S132 684 136 688S147 698 151 701S163 708 168 711S181 717 185 718S196 721 200 722C206 723 270 723 509 723zM510 660C264 660 209 659 205 658C202 657 198 655 195 654S187 649 184 647S177 640 175 637S170 628 169 624L166 616V184L169 176C170 172 173 166 175 163S181 155 184 153S192 147 195 145S203 142 206 141C210 140 264 140 510 140S810 140 814 141C817 142 822 143 825 145S833 151 836 153S843 160 845 163S850 172 851 176L854 184V616L851 624C850 628 847 634 845 637S839 644 836 647S829 653 826 654S818 658 815 659C810 660 767 660 510 660zM388 555C401 555 406 555 412 553C416 552 424 550 429 548S441 542 446 539S458 530 463 526S474 514 477 510S485 498 487 494S492 482 494 477S497 465 498 461C499 455 500 435 500 360V268L497 263C496 260 493 256 491 254S485 249 482 247C477 245 474 244 469 244C465 244 461 245 458 246S451 249 448 252S441 258 440 261L438 266L437 297V327H333V297L332 266L330 261C329 258 325 255 322 252S315 247 312 246S305 244 301 244C296 244 293 245 288 247C285 249 281 252 279 254S274 260 273 263L270 268V360C270 435 271 455 272 461C273 465 274 472 276 477S280 489 282 492S287 502 290 506S298 516 302 520S312 530 315 532S324 539 328 541L342 548S354 552 358 553S366 555 368 555H388zM718 556C724 556 727 555 732 553C735 551 739 548 741 546S746 540 747 537L750 532V268L747 263C746 260 743 256 741 254C739 251 735 249 731 247L725 244H682C641 244 638 245 631 247C627 248 620 251 615 253S603 260 599 263S588 272 585 276S578 285 576 288S571 297 569 302S565 314 564 319S562 333 562 338S563 351 564 356S567 368 569 373S574 384 576 387S582 395 585 399S595 409 599 412S610 420 615 422S628 427 632 428C639 430 641 430 656 430C670 430 674 430 680 428L687 426V480L688 534L690 539C691 542 695 545 698 548S705 553 707 554S714 556 718 556zM388 493C384 493 379 494 376 493S369 491 366 490S357 486 354 484S346 477 344 474S339 466 338 463S335 455 334 452S333 435 333 418V390H437V418C437 434 437 448 436 451L432 463S428 471 426 474S418 482 415 484S406 490 402 491S392 493 388 493zM658 368H649S644 367 642 366S637 362 635 360S630 353 628 350C626 345 625 344 625 338S626 329 628 324C630 321 633 317 635 315S640 311 642 310S647 308 650 307S662 306 671 306H687V324C687 337 686 343 685 347C684 350 682 354 680 357C677 361 674 363 670 365C667 367 661 368 658 368z" />
    <glyph glyph-name="adjustments"
      unicode="&#xEA03;"
      horiz-adv-x="1010" d="M263 764C266 764 271 763 273 762S279 758 281 756S287 751 288 748L290 742L291 668L292 594L299 591C303 590 310 586 314 584S325 578 328 576S338 568 342 564S352 552 355 547S363 534 365 529S370 516 371 512S373 499 374 494S374 481 374 477S373 465 372 461S370 450 369 446S364 435 362 431S355 419 352 415S343 404 339 400S328 391 324 388S315 382 312 381S303 377 299 375L291 373V60L288 54C286 51 283 46 281 44S275 39 272 38S265 36 260 36S251 37 248 38S241 42 239 44S234 51 232 54L229 60V373L220 376C215 378 207 381 203 384S193 391 190 393S181 401 177 405S168 416 165 420S159 430 157 433S152 443 151 447S149 457 148 461S146 473 146 477S145 489 146 494S148 508 149 512S153 524 155 529S162 542 165 547S174 559 179 564S191 575 195 578S205 584 208 586S217 589 221 591L228 594L229 668L230 742L232 748C233 751 237 754 239 756S244 761 246 762S251 764 253 764H263zM513 764C516 764 521 763 523 762S529 758 531 756S537 751 538 748L540 742L541 543L542 344L549 341C553 340 560 336 564 334S575 328 578 326S588 318 592 314S602 302 605 297S613 284 615 279S620 266 621 262S623 249 624 244S624 231 624 227S623 215 622 211S620 200 619 196S614 185 612 181S605 169 602 165S593 154 589 150S578 141 574 138S565 132 562 131S553 127 549 125L541 123V60L538 54C536 51 533 46 531 44S525 39 522 38S515 36 510 36S501 37 498 38S491 42 489 44S484 51 482 54L479 60V123L470 126C465 128 457 131 453 134S443 141 440 143S431 151 427 155S418 166 415 170S409 180 407 183S402 193 401 197S399 207 398 211S396 223 396 227S395 239 396 244S398 258 399 262S403 274 405 279S412 292 415 297S424 309 429 314S441 325 445 328S455 334 458 336S467 339 471 341L478 344L479 543L480 742L482 748C483 751 487 754 489 756S494 761 496 762S501 764 503 764H513zM763 764C766 764 771 763 773 762S779 758 781 756S787 751 788 748C790 744 791 741 791 731L792 719L799 716C803 715 810 711 814 709S825 703 828 701S838 693 842 689S852 677 855 672S863 659 865 654S870 641 871 637S873 624 874 619S874 606 874 602S873 590 872 586S870 575 869 571S864 560 862 556S855 544 852 540S843 529 839 525S828 516 824 513S815 507 812 506S803 502 799 500L791 498V60L788 54C786 51 783 46 781 44S775 39 772 38S765 36 760 36S751 37 748 38S741 42 739 44S734 51 732 54L729 60V498L720 501C715 503 707 506 703 509S693 516 690 518S681 526 677 530S668 540 665 544S659 555 657 558S652 568 651 572S649 582 648 586S646 598 646 602S645 614 646 619S648 633 649 637S653 649 655 654S662 667 665 672S674 684 679 689S691 700 695 703S705 709 708 711S717 714 721 716L728 719L729 731C729 741 730 744 732 748C733 751 737 754 739 756S744 761 746 762S751 764 753 764H763zM760 660C756 660 749 659 746 658S739 656 736 654S728 649 725 646S718 639 716 636S712 629 711 626S708 617 708 613S708 604 709 600S712 590 713 587S717 579 719 576S727 568 730 566S739 560 743 559C748 557 752 557 760 557S771 557 776 559C779 560 785 564 789 566S797 572 799 574S804 581 805 583S809 590 810 593C811 597 811 601 811 609S811 621 809 626C808 629 806 633 804 636S798 643 795 646S787 653 784 654S776 657 773 658S764 660 760 660zM260 535C256 535 249 534 246 533S239 531 236 529S228 525 225 522S218 515 216 512S212 504 211 501S208 492 208 488S208 479 209 475S212 465 213 462S217 454 219 451S227 443 230 441S239 435 243 434C248 432 252 432 260 432S271 432 276 434C279 435 285 439 289 441S297 447 299 449S304 456 305 458S309 465 310 468C311 472 311 476 311 484S311 495 309 500C308 503 306 509 304 512S298 519 295 522S287 528 284 529S276 532 273 533S264 535 260 535zM510 285C506 285 499 284 496 283S489 281 486 279S478 275 475 272S468 265 466 262S462 254 461 251S458 242 458 238S458 229 459 225S462 215 463 212S467 204 469 201S477 193 480 191S489 185 493 184C498 182 502 182 510 182S521 182 526 184C529 185 535 189 539 191S547 197 549 199S554 206 555 208S559 215 560 218C561 222 561 226 561 234S561 245 559 250C558 253 556 259 554 262S548 269 545 272S537 278 534 279S526 282 523 283S514 285 510 285z" />
    <glyph glyph-name="alarm"
      unicode="&#xEA04;"
      horiz-adv-x="1010" d="M304 764C307 764 312 763 316 761S323 757 326 753C328 750 331 745 332 742C333 738 333 735 333 731C333 728 331 723 330 721S328 715 326 713S296 690 264 667S203 623 201 622C197 620 195 620 187 620S177 620 173 622C171 623 166 627 164 629C161 632 159 636 158 639S156 646 156 650S157 658 158 661S161 668 163 670S193 693 226 717S286 760 288 761S293 763 295 764S301 764 304 764zM721 764C724 764 728 763 730 762S762 741 794 717S854 673 856 671S861 664 862 661S864 653 864 650C864 646 863 642 862 639S859 632 856 629C854 627 849 623 847 622C843 620 841 620 833 620S823 620 819 622C817 623 789 643 757 666S698 709 696 711S691 717 690 720S687 728 687 731C687 735 687 738 688 742C689 745 692 749 694 752S699 758 702 760S708 763 711 764S718 764 721 764zM514 681C537 681 545 680 556 678C564 677 575 675 580 674S593 671 599 669S615 664 622 661S643 654 652 649S674 636 681 632S699 621 705 616S721 603 727 597S743 582 748 576S761 562 764 558S773 546 777 540S788 524 791 518S799 503 802 497S808 483 810 478S815 464 817 458S823 442 824 436S827 420 828 412S831 390 832 382C833 373 833 360 833 349C833 339 832 325 831 318S827 301 826 294S822 275 820 267S813 248 810 240S802 220 798 212S788 193 784 187S774 172 769 166S757 150 752 145S740 130 734 125S718 111 711 106S694 93 688 89S672 79 666 76S651 68 644 65S628 58 623 56S609 51 602 49S583 44 575 42S554 38 547 37C538 36 525 36 510 36C497 36 484 36 478 37S462 39 455 40S437 43 431 45S413 50 406 52S387 59 379 63S359 72 352 76S336 86 331 90S315 101 308 106S289 122 281 130S264 150 259 156S247 170 243 176S234 190 231 195S224 209 221 215S213 232 210 240S202 259 200 267S195 287 194 294S190 312 189 319C188 328 188 338 188 358S188 388 189 398C190 405 193 417 194 424S198 441 200 448S205 464 207 470S213 485 216 492S224 509 227 515S237 531 241 537S252 552 255 556S265 569 271 575L293 597S310 611 316 616S332 628 338 632S353 640 360 644S377 653 383 656S400 663 407 665S425 670 432 672S450 676 457 677S473 679 478 680S499 681 514 681zM508 619C505 619 497 618 491 618S475 616 468 615S451 612 444 610S427 605 421 603S405 597 399 594S383 586 377 582S361 572 356 568S344 559 339 555S328 544 323 539S311 527 308 523S299 510 295 504S285 489 282 484S275 470 272 463S264 445 262 438S257 418 255 410S252 391 251 384S250 364 250 351C250 340 251 326 252 320S255 305 257 298S261 282 263 276S268 260 271 254S279 238 283 231S293 214 296 210S305 198 310 192S323 177 330 171S347 156 353 151S368 140 372 137S386 129 393 126S409 118 415 116S430 110 437 108S456 104 463 103S482 100 490 99S510 98 520 98C529 98 540 99 546 100S560 103 565 104S580 107 585 109S599 114 604 116S619 123 626 126S642 134 647 137S661 146 667 151S683 165 690 171S706 186 711 192S721 207 725 212S734 226 737 232S745 247 748 254S756 272 758 279S763 299 765 307S768 326 769 333S770 353 770 366C770 377 769 391 768 396L764 416S760 432 757 440C754 449 749 462 744 472C739 481 732 495 727 502S715 518 712 522S702 533 698 538S686 550 680 555S665 567 660 571S646 580 641 583S627 591 621 594S605 601 599 603S582 608 576 610S560 614 553 615S534 617 526 618S511 619 508 619zM513 514H503S498 513 496 512S491 508 489 506S484 499 482 496L479 490V421C479 360 480 352 481 348C482 345 484 341 487 338S493 331 496 330L502 328L549 327C590 327 598 327 603 328C606 329 610 332 613 334C617 337 619 340 621 345C624 351 624 352 624 358C624 363 624 366 622 370C621 373 618 377 615 380S609 386 606 387C601 389 600 390 571 390H541V490L538 496C536 499 533 504 531 506S525 511 523 512S516 514 513 514z" />
    <glyph glyph-name="alert-circle"
      unicode="&#xEA05;"
      horiz-adv-x="1010" d="M508 806C523 806 538 806 548 805C556 804 570 801 579 800S601 796 610 794S632 788 640 785S661 777 669 774S687 766 692 764S706 756 711 753S727 743 735 738S754 725 759 721S773 709 779 704S795 690 802 683S818 666 823 660S835 644 840 637S852 620 855 615S864 600 867 594S877 577 880 569S888 549 891 541S899 520 901 512S906 490 908 482S912 460 913 451C915 437 915 430 915 400S915 363 913 349C912 340 910 326 908 318S902 295 900 287S894 266 891 258S883 238 879 230L865 202S853 182 848 175S835 158 831 152S819 137 814 131S800 115 793 108S776 92 770 87S754 75 747 70S731 59 725 55S708 45 700 41S679 31 670 27S648 18 640 15S619 8 610 6S588 1 579 0S556 -4 547 -5C534 -6 524 -6 502 -6C481 -6 469 -5 458 -3C449 -2 436 0 428 2S406 7 398 9S377 16 370 18S355 24 352 25S342 30 336 33S319 41 312 45S294 56 286 61S268 75 262 79S247 91 241 96S225 110 218 117S202 134 197 140S185 156 180 163S168 180 165 185S156 200 153 206S143 223 140 231S132 250 129 258S122 279 120 287S114 310 112 318S108 339 107 348C105 359 104 371 104 392C104 414 104 424 105 437C106 446 108 460 109 468S113 489 115 497S121 517 123 523S129 540 132 548S141 569 145 578S156 599 160 606S171 623 175 629S185 644 189 649S200 663 206 669S221 686 228 692S244 708 250 713S266 725 273 730S290 742 295 745S310 754 316 757S333 767 341 770S361 778 368 781S388 787 397 790S420 796 428 798S449 802 458 803S477 805 479 805S494 806 508 806zM518 743H488S469 741 461 740S440 737 433 735S414 730 407 728S389 721 383 719S365 712 357 708S338 698 333 695S320 686 316 683S303 674 297 670S279 655 271 647S253 628 249 624S239 610 234 604S222 588 219 583S211 569 208 563S199 547 196 540S188 520 185 513S179 493 177 486S173 468 172 462S169 445 168 437C167 428 167 416 167 400S167 372 168 363C169 355 171 344 172 338S176 322 177 316S181 301 183 294S190 276 192 270S199 253 203 246S212 228 215 223S224 210 227 206S236 193 240 187S257 167 267 157C278 146 292 135 298 130S314 117 320 113S337 104 343 100S360 91 367 88S385 80 392 77S410 72 416 70S433 65 440 64S458 61 464 60S483 58 492 57S513 57 520 57S538 57 544 58S561 61 569 62S587 66 593 67S609 71 616 73S633 80 639 82S657 89 664 93S682 102 687 105S700 114 704 117S717 126 723 130S741 145 749 153S767 172 771 176S781 190 786 196S797 211 801 217S811 235 816 244S826 265 828 271S835 288 837 296S843 316 845 323S849 343 850 351S852 372 853 382C854 394 854 406 853 418C852 428 851 441 850 449S847 470 845 477S840 496 838 503S831 521 829 527S822 545 818 553S808 572 805 577S796 590 793 594S784 607 780 613S763 633 753 643S729 666 723 670S709 680 704 683S690 692 684 696S667 706 661 709S645 716 639 718S623 725 616 727S600 732 594 733S578 737 572 738S555 740 548 741S527 743 518 743zM512 598C517 598 520 597 524 595C527 594 530 590 533 587S538 580 539 577C540 573 541 562 541 481L540 390L538 385C536 382 533 379 531 377S526 373 524 372C520 370 518 370 510 370S500 370 496 372C494 373 491 375 489 377S484 382 482 385L480 390L479 481C479 562 480 573 481 577C482 580 484 584 487 587S493 593 495 594S501 597 502 597S508 598 512 598zM512 264C509 264 505 265 503 264S498 262 496 261S491 258 489 256S484 249 482 246C480 241 479 239 479 234C479 230 480 226 481 223S484 216 487 213S493 206 496 205C500 203 503 203 510 203S519 203 524 205C527 207 531 210 533 212S538 218 539 221C541 224 541 227 541 233S541 241 539 246C538 249 534 253 532 255S527 261 524 262S515 264 512 264z" />
    <glyph glyph-name="alert-triangle"
      unicode="&#xEA06;"
      horiz-adv-x="1010" d="M508 808C510 808 517 808 522 807S535 804 540 803S553 799 557 797S569 791 573 788S585 779 590 774S602 761 604 758S675 636 757 494C851 332 907 233 909 229C910 225 912 218 913 214S916 203 916 198S916 185 915 180S913 167 912 163S908 151 906 146S900 134 897 129S888 117 884 113S874 103 870 100S858 92 854 90S842 85 837 83S824 80 819 79C811 78 775 77 509 77C242 77 207 78 199 79C194 80 187 81 182 83S170 87 167 89S157 94 153 97S142 106 137 111S126 123 123 128S115 141 113 146S108 158 107 163S105 176 104 181C103 188 103 195 104 202C105 208 106 216 107 221S111 232 112 235S182 356 264 498S415 758 417 761S424 768 426 771S434 779 438 782S448 790 452 792L466 799S476 803 481 804S493 807 497 807S506 808 508 808zM512 744H501S495 743 492 742S484 738 481 736S474 730 471 727C467 723 427 654 318 466C237 325 169 208 168 206S166 199 166 195C166 190 166 186 167 181C168 177 170 171 172 168S177 159 181 155S191 147 194 146S201 143 204 142C209 141 236 140 509 140C775 140 809 141 814 142C817 143 822 145 825 146S834 151 838 155S845 165 847 168C848 171 850 176 851 179S853 188 853 191S853 200 852 203C851 207 818 265 705 459C625 596 559 712 556 717S549 727 546 730S538 737 536 738S529 741 526 742S517 744 512 744zM512 556C519 556 521 554 525 552C528 550 531 548 533 546S537 541 538 539C540 535 541 535 541 485V435L538 429C536 425 534 421 531 419C529 417 525 414 522 413C519 411 515 411 510 411S501 412 498 413S491 417 489 419S484 425 482 428L479 434V482C479 512 479 532 480 534S482 540 484 543S489 549 492 551S498 554 500 555S508 556 512 556zM512 306C508 306 502 306 500 305S495 303 492 301S486 296 484 293S481 286 480 284S479 278 479 274C479 269 480 267 482 262C484 259 487 254 489 252S495 247 498 246C501 244 505 244 510 244S519 244 522 246C525 247 529 250 531 252C534 254 536 258 538 262C540 267 541 269 541 276C541 282 540 286 538 289C537 291 535 294 533 296S528 300 525 302C521 304 519 306 512 306z" />
    <glyph glyph-name="align-center"
      unicode="&#xEA07;"
      horiz-adv-x="1010" d="M509 682C749 682 845 682 849 681C852 680 856 678 858 677S864 673 866 671S871 665 872 662C874 658 874 656 874 650S874 642 872 638C871 635 868 631 866 629S860 624 858 623S852 620 849 619C845 618 749 618 510 618S175 618 171 619C168 620 164 622 162 623S156 627 154 629S149 635 148 638C146 642 146 644 146 650S146 658 148 662C149 665 152 669 154 671S159 676 161 677S166 680 169 681C173 682 247 682 509 682zM513 432H684L690 428C694 426 699 424 701 421C703 419 705 414 706 411S708 403 708 400S707 392 706 389S703 381 701 379C699 376 694 374 690 372L684 368H336L331 371C328 372 323 375 321 378C318 381 315 386 314 389S312 396 312 400S313 408 314 411S317 418 320 421C322 423 327 427 329 428S335 431 337 431S419 432 513 432zM509 182C371 182 256 181 254 181S248 179 246 178S240 174 238 172S233 166 231 163C229 158 229 155 229 150S229 142 231 137C233 134 236 130 238 128S244 123 246 122S252 120 255 119C259 118 345 118 510 118S761 118 765 119C768 120 772 121 774 122S780 126 782 128S787 133 788 135S790 142 791 145S792 152 791 155S789 163 788 165S784 170 782 172S776 177 774 178S768 180 765 181C761 182 675 182 509 182z" />
    <glyph glyph-name="align-justified"
      unicode="&#xEA08;"
      horiz-adv-x="1010" d="M509 682C749 682 845 682 849 681C852 680 856 678 858 677S864 673 866 671S871 665 872 662C874 658 874 656 874 650S874 642 872 638C871 635 868 631 866 629S860 624 858 623S852 620 849 619C845 618 749 618 510 618S175 618 171 619C168 620 164 622 162 623S156 627 154 629S149 635 148 638C146 642 146 644 146 650S146 658 148 662C149 665 152 669 154 671S159 676 161 677S166 680 169 681C173 682 247 682 509 682zM509 432C749 432 845 432 849 431C852 430 856 428 858 427S864 423 866 421S871 415 872 412C874 408 874 406 874 400S874 392 872 388C871 385 868 381 866 379S860 374 858 373S852 370 849 369C845 368 749 368 510 368S175 368 171 369C168 370 164 372 162 373S156 377 154 379S149 385 148 388C146 392 146 394 146 400S146 408 148 412C149 415 152 419 154 421S159 426 161 427S166 430 169 431C173 432 247 432 509 432zM429 182C229 182 173 182 169 181C166 180 163 178 161 177S156 173 154 171S149 165 148 162C146 158 146 156 146 150S146 142 148 138C149 135 152 131 154 129S160 123 162 122S169 120 172 119C176 118 247 118 431 118H684L690 122C694 124 699 126 701 129C703 131 705 136 706 139S708 147 708 150S707 158 706 161S703 169 701 171C699 174 694 176 690 178L684 182H429z" />
    <glyph glyph-name="align-left"
      unicode="&#xEA09;"
      horiz-adv-x="1010" d="M509 682C749 682 845 682 849 681C852 680 856 678 858 677S864 673 866 671S871 665 872 662C874 658 874 656 874 650S874 642 872 638C871 635 868 631 866 629S860 624 858 623S852 620 849 619C845 618 749 618 510 618S175 618 171 619C168 620 164 622 162 623S156 627 154 629S149 635 148 638C146 642 146 644 146 650S146 658 148 662C149 665 152 669 154 671S159 676 161 677S166 680 169 681C173 682 247 682 509 682zM384 432C533 432 595 432 599 431C602 430 606 428 608 427S614 423 616 421S621 415 622 412C624 408 624 406 624 400S624 392 622 388C621 385 618 381 616 379S610 374 608 373S602 370 599 369C595 368 533 368 385 368S175 368 171 369C168 370 164 372 162 373S156 377 154 379S149 385 148 388C146 392 146 394 146 400S146 408 148 412C149 415 152 419 154 421S159 426 161 427S166 430 169 431C173 432 221 432 384 432zM467 182C238 182 173 182 169 181C166 180 163 178 161 177S156 173 154 171S149 165 148 162C146 158 146 156 146 150S146 142 148 138C149 135 152 131 154 129S160 124 162 123S168 120 171 119C175 118 260 118 468 118C662 118 761 118 765 119C768 120 772 121 774 122S780 126 782 128S787 133 788 135S790 142 791 145S792 152 791 155S789 163 788 165S784 170 782 172S776 177 774 178S768 180 765 181C761 182 662 182 467 182z" />
    <glyph glyph-name="align-right"
      unicode="&#xEA0A;"
      horiz-adv-x="1010" d="M509 682C749 682 845 682 849 681C852 680 856 678 858 677S864 673 866 671S871 665 872 662C874 658 874 656 874 650S874 642 872 638C871 635 868 631 866 629S860 624 858 623S852 620 849 619C845 618 749 618 510 618S175 618 171 619C168 620 164 622 162 623S156 627 154 629S149 635 148 638C146 642 146 644 146 650S146 658 148 662C149 665 152 669 154 671S159 676 161 677S166 680 169 681C173 682 247 682 509 682zM634 432C783 432 845 432 849 431C852 430 856 428 858 427S864 423 866 421S871 415 872 412C874 408 874 406 874 400S874 392 872 388C871 385 868 381 866 379S860 374 858 373S852 370 849 369C845 368 783 368 635 368S425 368 421 369C418 370 414 372 412 373S406 377 404 379S399 385 398 388C396 392 396 394 396 400S396 408 398 412C399 415 402 419 404 421S409 426 411 427S416 430 419 431C423 432 471 432 634 432zM551 182C390 182 256 181 254 181S248 179 246 178S240 174 238 172S233 166 232 164S230 158 229 155S228 148 229 145S231 138 232 136S236 130 238 128S243 123 245 122S252 120 255 119S361 118 552 118C760 118 845 118 849 119C852 120 856 122 858 123S864 127 866 129S871 135 872 138C874 142 874 144 874 150S874 158 872 162C871 165 868 169 866 171S860 176 858 177S852 180 849 181C845 182 760 182 551 182z" />
    <glyph glyph-name="archive"
      unicode="&#xEA0B;"
      horiz-adv-x="1010" d="M514 765L816 764L826 762C831 761 838 759 842 758S852 753 856 751S866 745 870 742S880 733 885 728S896 716 899 711S906 699 908 694S912 681 913 677C914 671 916 664 916 654C916 642 916 637 915 630C914 625 912 619 911 615S908 605 906 602S901 592 898 587S889 575 885 571S874 561 870 558S858 550 853 548S842 542 839 541L833 540V341C833 205 833 139 832 134C831 130 829 123 828 118S824 105 822 101S816 89 813 85S804 74 799 69S786 57 781 54S768 47 764 45S753 40 748 39S735 37 729 36C722 35 650 35 502 35C298 35 286 35 279 37C275 38 269 40 266 41S257 44 253 46S243 52 238 55S226 64 221 69S210 81 207 85S200 97 198 101S193 113 192 118S189 130 188 134C187 139 187 205 187 341V540L181 541C178 542 172 546 167 548S154 555 150 558S138 567 134 572S124 584 121 589S114 601 112 606S108 618 107 623C105 630 105 634 105 650S105 670 107 677C108 682 110 689 112 694S118 706 121 711S130 723 134 728S146 739 150 742S162 750 168 753S183 759 188 760S201 764 205 764S348 765 514 765zM509 702C276 702 210 702 206 701C203 700 200 698 197 697S189 693 186 691S178 683 176 680S170 671 169 667C167 661 167 658 167 650S167 639 169 633C170 629 174 623 176 620S183 611 186 609S194 604 197 603S205 600 208 599C212 598 293 598 510 598S808 598 812 599C815 600 820 602 823 603S831 607 834 609S842 617 844 620S850 629 851 633C853 639 853 642 853 650S853 661 851 667C850 671 846 677 844 680S837 689 834 691S826 696 823 697S815 700 812 701C808 702 727 702 509 702zM510 535H250V339C250 166 251 142 252 137C253 134 255 129 256 126S261 118 264 115S271 108 274 106S281 102 285 101L292 98H510C721 98 729 98 734 100C737 101 742 104 745 106S753 112 756 115S763 123 764 126S767 134 768 137C769 142 770 166 770 339V535H510zM510 431H420L414 428C411 426 406 423 404 421S399 415 398 412S396 405 396 400S397 391 398 388S402 381 404 379S411 374 414 372L420 369H600L607 372C611 374 614 376 617 379C619 382 622 386 623 389S624 397 624 400S624 408 623 411S619 418 617 421C614 424 611 426 607 428L600 431H510z" />
    <glyph glyph-name="arrow-back"
      unicode="&#xEA0C;"
      horiz-adv-x="1010" d="M655 640C639 640 631 639 627 638C624 637 620 636 618 635S614 631 612 629S608 624 607 622C606 619 604 615 604 610S604 602 605 598C606 595 609 591 612 588S618 581 621 580L626 578L660 577C687 577 696 576 702 575C706 574 714 571 718 570S730 566 734 564S745 558 751 554C758 550 765 544 772 537C778 531 785 522 789 517C792 512 796 504 798 500S803 489 805 484S809 472 810 467C811 461 811 455 811 442C811 428 811 422 809 414C808 408 805 401 804 397S800 386 798 382S791 371 789 367S783 357 779 353S769 342 765 339S754 331 750 328S739 322 736 320S726 315 720 313S706 309 701 308C693 306 678 306 493 306H294L352 365C393 406 411 425 413 428C414 431 416 435 416 440S416 448 415 452C414 455 411 459 408 462S402 469 399 470C395 472 392 472 385 472S376 472 372 470S344 445 279 380C218 319 192 291 190 288C188 284 188 282 188 275S188 266 190 262S215 234 280 169C341 108 369 82 372 80C376 78 378 78 385 78S395 78 399 80C402 81 405 85 408 88S414 95 415 98C416 102 416 105 416 110S414 119 413 122C411 125 393 144 352 185L294 244H492C662 244 692 244 702 245C708 246 718 248 724 249S737 253 742 255S757 261 764 264S779 273 784 276S797 285 801 288S813 298 819 304S830 317 833 320S840 330 843 335S851 348 854 354S860 368 862 373S867 386 868 392S871 407 872 413S874 428 874 433S875 448 874 456S872 473 871 479S867 495 865 501S859 517 857 522S851 536 848 541S838 555 834 561S823 575 817 581S802 595 798 598S787 606 783 609S770 616 764 619S746 627 739 629S721 635 715 636S698 638 691 639S667 640 655 640z" />
    <glyph glyph-name="arrow-bar-down"
      unicode="&#xEA0D;"
      horiz-adv-x="1010" d="M512 765L850 764L856 762C859 761 862 758 865 755S871 749 872 746C874 742 874 738 874 733C874 727 874 725 871 719C868 714 866 712 862 709C859 707 856 704 853 703C849 702 806 702 510 702S171 702 167 703C164 704 161 707 158 709C154 712 152 714 149 719C146 725 146 727 146 733C146 738 146 742 148 746C149 749 152 752 154 754S160 760 162 761S168 764 170 764S326 765 512 765zM512 514C510 514 505 515 502 514S495 511 493 510S488 506 487 504S483 499 482 496L479 490V317C479 221 478 143 478 143S451 169 419 201C370 250 360 260 356 262S348 264 343 264C337 264 335 264 329 261C324 258 322 256 319 252C317 249 314 245 313 242C312 238 312 235 312 231C312 228 314 223 315 220C317 216 333 201 405 128C478 55 493 40 497 38S504 36 510 36S519 36 523 38S542 55 615 128C687 201 703 216 705 220C706 223 708 228 708 231C708 235 708 238 707 242C706 245 703 249 701 252C698 256 696 258 691 261C685 264 683 264 677 264C672 264 668 264 664 262S649 249 601 201C569 169 542 143 542 143S541 221 541 317V490L538 497C536 501 534 504 531 507C528 509 524 511 521 512S514 514 512 514z" />
    <glyph glyph-name="arrow-bar-left"
      unicode="&#xEA0E;"
      horiz-adv-x="1010" d="M846 764C849 764 853 763 856 762S863 758 866 755S872 747 873 744C875 739 874 733 874 400S875 61 873 56C872 53 869 48 866 45S859 39 856 38C852 36 848 36 843 36C837 36 836 36 830 39C825 41 822 43 819 47C817 50 815 54 814 57C813 62 812 101 812 400C812 697 812 739 813 743C814 746 817 749 819 752S824 758 827 760S833 763 836 764S843 764 846 764zM343 598C340 598 336 598 334 597S329 594 327 593S284 552 236 504C158 426 149 416 147 412C146 409 146 404 146 400C146 395 146 391 148 387S164 369 238 295C311 223 326 207 330 205C333 204 338 202 341 202C345 202 348 202 352 203C355 204 360 207 363 209C367 212 369 215 371 220C374 226 374 227 374 233C374 238 374 242 372 246S360 260 311 309C279 341 253 368 253 368S331 369 427 369H600L607 372C611 374 614 376 617 379C619 382 622 386 623 389S624 397 624 400S624 408 623 411S619 418 617 421C614 424 611 426 607 428L600 431H427C331 431 253 432 253 432S279 459 311 491C360 540 370 550 372 554S374 562 374 567C374 573 374 574 371 580C369 585 367 588 363 591C360 593 356 595 353 596S346 598 343 598z" />
    <glyph glyph-name="arrow-bar-right"
      unicode="&#xEA0F;"
      horiz-adv-x="1010" d="M179 764C182 764 187 763 191 761C196 759 198 756 201 752C203 749 206 746 207 743C208 739 208 696 208 400S208 61 207 57C206 54 203 51 201 48C198 44 196 42 191 39C185 36 183 36 177 36C172 36 168 36 164 38C161 39 157 42 154 45S148 53 147 56C145 61 146 67 146 400C146 732 145 739 147 744C148 747 151 751 154 754S160 760 162 761S168 763 170 764S176 764 179 764zM678 598C674 598 670 598 667 597C665 596 661 593 658 591C654 588 652 586 649 581C646 575 646 573 646 567C646 562 646 558 648 554S660 540 709 491C741 459 767 432 767 432S689 431 593 431H420L413 428C409 426 406 424 403 421C401 418 398 414 397 411S396 403 396 400S396 392 397 389S401 382 403 379C406 376 409 374 413 372L420 369H593C689 369 767 368 767 368S741 341 709 309C660 260 650 250 648 246S646 238 646 233C646 227 646 225 649 219C652 214 654 212 658 209C661 207 665 204 668 203C672 202 675 202 679 202C682 202 687 204 690 205C694 207 709 223 782 295C855 368 870 383 872 387S874 394 874 400S874 409 872 413S855 432 782 505S694 593 690 595C687 596 682 598 678 598z" />
    <glyph glyph-name="arrow-bar-up"
      unicode="&#xEA10;"
      horiz-adv-x="1010" d="M512 765C515 765 520 763 523 762C527 760 540 747 615 672C687 599 703 584 705 580C706 577 708 572 708 569C708 565 708 562 707 558C706 555 703 551 701 548C698 544 696 542 691 539C685 536 683 536 677 536C672 536 668 536 664 538S649 551 601 599C569 631 542 657 542 657S541 579 541 483V310L538 304C536 301 533 296 531 294S525 289 523 288S518 287 515 286C511 285 509 285 505 286C502 287 497 288 495 289S490 292 488 294S484 301 482 304L479 310V483C479 579 478 657 478 657S451 631 419 599C370 550 360 540 356 538S348 536 343 536C337 536 335 536 329 539C324 542 322 544 319 548C317 551 314 555 313 558C312 562 312 565 312 569C312 572 314 577 315 580C317 584 332 600 404 672C452 720 492 760 494 761S500 763 502 764S509 765 512 765zM510 98C222 98 171 97 167 96C165 95 161 93 158 91C154 88 152 86 149 81C146 75 146 73 146 67C146 62 146 58 148 54C149 51 152 47 155 44S162 39 165 38L170 36H510C843 36 849 35 854 37C857 38 862 41 865 44S871 51 872 54C874 58 874 62 874 67C874 73 874 75 871 81C868 86 866 88 862 91C859 93 856 96 853 97C849 98 806 98 510 98z" />
    <glyph glyph-name="arrow-down-circle"
      unicode="&#xEA11;"
      horiz-adv-x="1010" d="M508 806C521 806 537 806 544 805S562 803 570 802S589 799 597 797L625 790S645 784 652 781S672 773 681 769S702 759 709 755S726 744 732 740S747 730 752 726S766 715 771 711S786 699 793 692S809 675 814 669S827 654 831 648S843 632 848 625S861 606 865 598L879 570S888 550 891 542S899 521 901 512S906 490 908 482S912 460 913 451C915 437 915 430 915 400S915 363 913 349C912 340 910 326 908 318S903 296 901 288S894 267 892 260S886 245 885 242S880 232 877 226S869 209 865 202S854 184 849 176S835 158 831 152S819 136 814 130S800 115 794 109S780 97 776 93S765 83 760 79S745 69 739 65S723 54 716 50S697 39 688 35S668 25 662 23S645 17 637 14S616 8 608 6S587 1 579 0S560 -3 554 -4C547 -5 531 -5 509 -5C480 -5 473 -5 459 -3C450 -2 437 1 430 2S412 5 406 7S390 12 383 14S367 20 362 22S346 28 339 31S320 41 313 45S294 56 288 60S273 71 267 75S253 85 248 89S234 101 227 108S211 125 206 131S193 146 189 152S177 168 172 175S159 194 155 202L141 230S132 250 129 258S122 279 120 287S114 310 112 318S108 340 107 349C105 363 105 370 105 400S105 437 107 451C108 460 110 474 112 482S117 504 119 512S126 533 129 541S137 561 140 569S150 588 153 594S162 610 165 615S175 630 180 637S192 654 197 660S212 675 218 682S235 699 242 705S259 719 265 724S282 736 288 740S305 751 313 755S334 766 342 770S363 779 370 782S390 789 398 791S420 796 428 798S449 802 458 803S477 805 480 805S495 806 508 806zM518 743H495S483 743 477 742S459 739 451 738S431 735 424 733S405 727 399 725S383 720 378 718S363 711 356 707S338 698 333 695S321 687 317 684S305 675 299 671S284 658 278 653S263 638 257 632S243 617 239 611S226 595 222 588S211 570 208 564S199 547 196 540S189 523 187 518S183 504 181 498S176 481 175 475S172 459 171 454S169 439 168 433S167 412 167 400S167 373 168 367S170 351 171 346S174 331 175 325S179 308 181 302S185 287 187 282S193 267 196 260S205 242 208 236S217 219 222 212C226 205 235 194 240 188S256 168 267 157C277 147 291 134 297 130S312 120 316 117S328 108 333 105S349 96 357 92S377 83 383 81S400 74 407 72S426 67 433 65S453 61 461 60S482 58 492 57C504 56 515 56 528 57C538 58 551 59 557 60S573 63 580 64S597 68 604 70S620 75 626 77S643 83 650 86S668 95 674 98S691 108 698 112S715 125 721 129S736 141 742 147S758 162 763 168S777 183 781 189S791 203 794 207S802 218 805 223S813 239 817 246S826 264 828 270S835 287 837 294S842 310 843 316S847 332 848 338S851 355 852 363C853 372 853 384 853 400S853 428 852 437C851 445 849 456 848 462S845 479 843 486S838 506 835 513S827 532 824 539S816 556 813 562S804 577 801 583S791 598 787 604S775 619 771 624S758 638 751 645S736 660 732 663L716 675S704 684 698 688S681 698 674 702S654 712 646 715S627 723 621 725S604 731 597 733S577 737 569 738S550 741 544 742S527 743 518 743zM512 598C508 598 503 597 502 597S497 595 495 594S489 590 487 587S482 580 481 577C480 573 479 559 479 441V309L420 367C370 417 361 426 356 428C352 430 349 431 344 431C340 431 336 430 333 429S326 426 323 423S316 417 315 414C313 410 313 407 313 400S313 391 315 387C317 384 343 356 405 294C486 213 494 206 499 204C502 203 507 202 510 202S518 203 521 204C526 206 534 213 615 294C677 356 703 384 705 387C707 391 707 393 707 400S707 410 705 414C704 417 700 420 697 423S690 428 687 429S680 431 676 431C671 431 668 430 664 428C659 426 650 417 600 367L541 309V441C541 559 540 573 539 577C538 580 536 584 533 587S527 594 524 595C520 597 517 598 512 598z" />
    <glyph glyph-name="arrow-down-left-circle"
      unicode="&#xEA12;"
      horiz-adv-x="1010" d="M508 806C523 806 538 806 548 805C556 804 570 801 579 800S601 796 610 794S632 788 640 785S661 777 669 774S687 766 692 764S706 756 711 753S727 743 735 738S754 725 759 721S773 709 779 704S795 690 802 683S818 666 823 660S835 644 840 637S852 620 855 615S864 600 867 594S877 577 880 569S888 549 891 541S899 520 901 512S906 490 908 482S912 460 913 451C915 437 915 430 915 400S915 363 913 349C912 340 910 326 908 318S902 295 900 287S894 266 891 259S883 240 880 233S872 216 869 210S861 195 858 190S849 176 845 170S835 155 831 150S819 137 814 131S800 115 793 108S776 92 770 87S754 75 747 70S731 59 725 55S708 45 700 41S679 31 670 27S648 18 640 15S619 8 610 6S588 1 579 0S556 -4 547 -5C534 -6 524 -6 502 -6C481 -6 469 -5 458 -3C449 -2 436 0 428 2S406 7 398 9S377 16 370 18S355 24 352 25S342 30 336 33S319 41 312 45S294 56 288 60S273 70 268 74S254 85 249 89S235 102 228 108S212 125 206 131S193 146 189 151S179 165 175 171S164 187 160 194S149 213 145 222S135 244 132 252S125 271 123 277S117 295 115 303S110 323 109 331S106 353 105 362S104 388 104 400S104 429 105 438S108 461 109 469S113 489 115 497S121 517 123 523S129 540 132 548S141 569 145 578S156 599 160 606S171 623 175 629S185 644 189 649S200 663 206 669S221 686 228 692S244 708 250 713S266 725 273 730S290 742 295 745S310 754 316 757S333 767 341 770S361 778 368 781S388 787 397 790S420 796 428 798S449 802 458 803S477 805 479 805S494 806 508 806zM518 743H488S469 741 461 740S440 737 433 735S414 730 407 728S389 721 383 719S365 712 357 708S338 698 333 695S320 686 316 683S303 674 297 670S277 653 267 643S244 619 240 613S230 598 227 594S218 582 215 577S207 561 203 554S194 536 192 530S185 513 183 506S178 490 177 484S173 468 172 462S169 445 168 437C167 428 167 416 167 400S167 372 168 363C169 355 171 344 172 338S176 322 177 316S181 301 183 294S190 277 192 271S199 253 203 246S212 228 215 223S224 210 227 206S236 193 240 187S257 167 267 157C278 146 292 135 298 130S314 117 320 113S337 104 343 100S360 91 367 88S385 80 392 77S410 72 416 70S433 65 440 64S458 61 464 60S483 58 492 57S513 57 520 57S538 57 544 58S561 61 569 62S587 66 593 67S609 71 616 73S633 80 639 82S657 89 664 93S682 102 687 105S700 114 704 117S717 126 723 130S741 145 749 153S767 172 771 176S781 190 786 196S797 211 801 217S811 235 816 244S826 265 828 271S835 288 837 296S843 316 845 323S849 343 850 351S852 372 853 382C854 394 854 406 853 418C852 428 851 441 850 449S847 470 845 477S839 496 837 504S830 523 828 529S821 547 816 556S805 577 801 583S791 598 786 604S775 620 771 624S757 639 749 647S729 666 723 670S709 680 704 683S690 692 684 696S667 706 661 709S645 716 639 718S623 725 616 727S600 732 594 733S578 737 572 738S555 740 548 741S527 743 518 743zM387 556C383 556 377 556 375 555S370 553 367 551S361 546 359 543S356 536 355 534S354 485 354 399V268L357 262C358 259 361 255 363 253S369 248 372 247L378 244H509C593 244 642 244 644 245S650 247 653 249S659 254 661 257S664 264 665 266S666 274 666 278C666 283 664 286 662 290C660 293 658 296 656 298S651 302 649 303L644 306H461L561 406C630 475 661 508 663 511C665 515 665 517 665 525C665 534 666 535 663 540C661 543 658 546 656 548S651 552 649 553C645 555 643 555 635 555S625 555 621 553C618 551 585 520 516 451L416 351V534L413 539C412 541 410 544 408 546S403 550 400 552C396 554 394 556 387 556z" />
    <glyph glyph-name="arrow-down-left"
      unicode="&#xEA13;"
      horiz-adv-x="1010" d="M721 639C718 639 714 640 712 639S706 637 704 636C701 635 643 578 516 451L333 268V421L332 574L330 580C328 583 325 588 323 590S316 594 314 595S307 598 304 598C300 598 297 598 293 597C290 596 285 593 282 591C278 588 276 585 274 580L270 574V184L274 178C276 174 278 169 280 168S286 164 289 163L294 160H684L690 164C695 166 698 168 701 172C703 175 706 180 707 183C708 187 708 190 708 194C708 197 706 202 705 204S702 211 700 213S693 218 690 220L684 222L531 223H378L561 407C727 573 745 591 747 596C749 600 749 603 749 608S749 617 747 621C746 624 743 627 740 630S734 636 731 637S724 639 721 639z" />
    <glyph glyph-name="arrow-down-right-circle"
      unicode="&#xEA14;"
      horiz-adv-x="1010" d="M508 806C523 806 538 806 548 805C556 804 570 801 579 800S601 796 610 794S632 788 640 785S661 777 669 774S687 766 692 764S706 756 711 753S727 743 735 738S754 725 759 721S773 709 779 704S795 690 802 683S818 666 823 660S835 644 840 637S852 620 855 615S864 600 867 594S877 577 880 569S888 549 891 541S899 520 901 512S906 490 908 482S912 460 913 451C915 437 915 430 915 400S915 363 913 349C912 340 910 326 908 318S902 295 900 287S894 266 891 259S883 240 880 233S872 216 869 210S861 195 858 190S849 176 845 170S835 155 831 150S819 137 814 131S800 115 793 108S776 92 770 87S754 75 747 70S731 59 725 55S708 45 700 41S679 31 670 27S648 18 640 15S619 8 610 6S588 1 579 0S556 -4 547 -5C534 -6 524 -6 502 -6C481 -6 469 -5 458 -3C449 -2 436 0 428 2S406 7 398 9S377 16 370 18S355 24 352 25S342 30 336 33S319 41 312 45S294 56 288 60S273 70 268 74S254 85 249 89S235 102 228 108S212 125 206 131S193 146 189 151S179 165 175 171S164 187 160 194S149 213 145 222S135 244 132 252S125 271 123 277S117 295 115 303S110 323 109 331S106 353 105 362S104 388 104 400S104 429 105 438S108 461 109 469S113 489 115 497S121 517 123 523S129 540 132 548S141 569 145 578S156 599 160 606S171 623 175 629S185 644 189 649S200 663 206 669S221 686 228 692S244 708 250 713S266 725 273 730S290 742 295 745S310 754 316 757S333 767 341 770S361 778 368 781S388 787 397 790S420 796 428 798S449 802 458 803S477 805 479 805S494 806 508 806zM518 743H488S469 741 461 740S440 737 433 735S414 730 407 728S389 721 383 719S365 712 357 708S338 698 333 695S320 686 316 683S303 674 297 670S277 653 267 643S244 619 240 613S230 598 227 594S218 582 215 577S207 561 203 554S194 536 192 530S185 513 183 506S178 490 177 484S173 468 172 462S169 445 168 437C167 428 167 416 167 400S167 372 168 363C169 355 171 344 172 338S176 322 177 316S181 301 183 294S190 277 192 271S199 253 203 246S212 228 215 223S224 210 227 206S236 193 240 187S257 167 267 157C278 146 292 135 298 130S314 117 320 113S337 104 343 100S360 91 367 88S385 80 392 77S410 72 416 70S433 65 440 64S458 61 464 60S483 58 492 57S513 57 520 57S538 57 544 58S561 61 569 62S587 66 593 67S609 71 616 73S633 80 639 82S657 89 664 93S682 102 687 105S700 114 704 117S717 126 723 130S741 145 749 153S767 172 771 176S781 190 786 196S797 211 801 217S811 235 816 244S826 265 828 271S835 288 837 296S843 316 845 323S849 343 850 351S852 372 853 382C854 394 854 406 853 418C852 428 851 441 850 449S847 470 845 477S839 496 837 504S830 523 828 529S821 547 816 556S805 577 801 583S791 598 786 604S775 620 771 624S757 639 749 647S729 666 723 670S709 680 704 683S690 692 684 696S667 706 661 709S645 716 639 718S623 725 616 727S600 732 594 733S578 737 572 738S555 740 548 741S527 743 518 743zM386 556C382 556 377 556 375 555S370 553 367 551S361 546 359 543S356 536 355 534S354 526 354 522C354 517 356 514 357 511C359 508 387 478 459 406L559 306H376L371 303C369 302 366 300 364 298S360 293 358 290C356 286 354 283 354 278C354 274 354 268 355 266S357 260 359 257S364 251 367 249S374 246 376 245S427 244 511 244H642L648 247C651 248 655 251 657 253S662 259 663 262L666 268V399C666 485 666 532 665 534S663 540 661 543S656 549 653 551S646 554 644 555S636 556 632 556C627 556 624 554 620 552C617 550 614 548 612 546S608 541 607 539L604 534V351L504 451C432 523 402 551 399 553S392 556 386 556z" />
    <glyph glyph-name="arrow-down-right"
      unicode="&#xEA15;"
      horiz-adv-x="1010" d="M304 639C301 639 297 640 295 639S289 637 287 636S281 632 279 630S274 623 273 620C271 616 271 613 271 608S271 600 273 596C275 591 293 573 459 407L642 223H489L336 222L330 220C327 218 322 215 320 213S316 206 315 204S312 197 312 194C312 190 312 187 313 183C314 180 317 175 319 172C322 168 325 166 330 164L336 160H726L732 164C736 166 741 168 742 170S746 176 747 179L750 184V574L746 580C744 585 742 588 738 591C735 593 730 596 727 597C723 598 720 598 716 598C713 598 708 596 706 595S699 592 697 590S692 583 690 580L688 574L687 421V268L503 451C341 613 319 635 314 637C311 638 307 639 304 639z" />
    <glyph glyph-name="arrow-down"
      unicode="&#xEA16;"
      horiz-adv-x="1010" d="M512 723C509 723 504 723 502 722S496 720 494 719S489 715 487 712S482 705 481 702C480 698 479 673 479 441V184L378 285C284 379 277 386 272 387C269 388 265 390 263 390S257 390 253 389C250 388 245 386 243 385S238 381 237 379S233 374 232 372C230 369 230 365 230 358C230 350 230 349 232 345C234 342 270 304 364 210C483 91 494 81 499 79C502 78 507 77 510 77S518 78 521 79C526 81 537 91 656 210C750 304 786 342 788 345C790 349 790 350 790 358C790 365 790 368 788 372C787 374 784 378 782 380S777 385 775 386S768 388 765 389C761 390 759 390 755 389C752 388 747 387 745 386S701 344 641 284L541 184V441C541 674 540 698 539 702C538 705 536 709 533 712S526 719 523 720S515 723 512 723z" />
    <glyph glyph-name="arrow-forward"
      unicode="&#xEA17;"
      horiz-adv-x="1010" d="M364 640C349 640 333 639 327 639S312 637 306 636S290 632 284 630S268 624 263 622S249 616 244 613S230 603 224 599S209 588 203 582S190 567 186 561S176 548 173 543S166 529 163 523S157 507 155 501S150 485 149 479S147 463 146 455C145 445 145 438 146 428C147 420 148 409 149 402S153 385 155 379S162 363 165 357S172 342 175 338S182 327 185 323S195 311 201 305S215 291 219 288S230 279 235 276S249 268 254 265S268 258 274 256S289 252 295 250S312 247 318 246C328 245 357 244 528 244H726L668 185C627 144 609 125 607 122C606 119 604 115 604 110S604 102 605 98C606 95 609 91 612 88S618 81 621 80C625 78 628 78 635 78S644 78 648 80S676 105 741 170C802 231 828 259 830 262C832 266 832 268 832 275S832 284 830 288C828 291 802 319 741 380C676 445 652 468 648 470S642 472 635 472S625 472 621 470C618 469 615 465 612 462S606 455 605 452C604 448 604 445 604 440S606 431 607 428C609 425 627 406 668 365L726 306H527C345 306 326 306 319 308C315 309 308 312 303 313S291 317 286 319S273 326 268 330S254 340 249 345S237 358 234 362S226 375 223 380S217 393 216 397S212 408 211 414C209 423 209 428 209 442C209 455 209 461 210 467C211 472 214 479 215 483S219 495 221 499S227 510 231 516S241 530 248 537S262 550 268 554S282 562 286 564S298 569 302 570S314 574 318 575C324 576 333 577 360 577L394 578L399 580C402 581 405 585 408 588S414 595 415 598C416 602 416 605 416 610S414 619 412 623C410 626 407 630 405 632S399 637 396 638C392 640 387 640 364 640z" />
    <glyph glyph-name="arrow-left-circle"
      unicode="&#xEA18;"
      horiz-adv-x="1010" d="M262 556C269 556 271 554 275 552C278 550 281 548 283 546S287 541 288 539C290 535 290 533 290 525S290 515 288 511C286 508 273 494 248 469L211 431H451L691 432L694 439C696 443 697 449 699 452S704 461 707 465S716 476 721 481S733 492 738 495S751 503 756 505S769 510 773 511S786 513 791 514S804 515 808 515S820 513 824 512S835 509 839 508S850 504 854 502S863 497 867 494S877 487 881 483S890 473 892 470S898 460 901 456S907 445 909 440S913 429 914 425C915 419 915 414 915 400C915 385 915 380 913 373C912 368 910 361 908 356S902 344 899 339S890 327 886 322S874 311 870 308S858 300 854 298S843 292 839 291S828 289 824 288S812 286 808 286S796 285 791 286S777 288 773 289S761 293 756 295S743 302 738 305S726 314 721 319S710 331 707 335S701 345 699 348S696 357 694 361L691 368L451 369H211L248 331C273 306 286 292 288 289C290 285 290 283 290 275S290 265 288 261C287 259 285 256 283 254S278 249 275 247C270 244 269 245 260 245C252 245 250 245 246 247C243 249 220 270 175 315C116 374 108 382 106 387S104 395 104 400S104 408 106 413S116 426 175 485C211 521 243 552 245 553S250 555 251 555S258 556 262 556zM804 452C799 452 793 452 791 451S782 448 778 446C772 443 768 441 764 436C761 433 757 427 756 424S753 416 752 413S750 404 750 400S751 390 752 387S755 379 756 376S761 367 765 363S775 356 778 354S787 350 791 349C796 348 800 348 805 348C809 348 815 350 818 351S826 354 829 356S836 361 839 364S845 372 848 377C851 383 852 388 853 393S854 402 853 407C852 411 851 416 850 418S846 425 844 429S838 437 836 439S830 444 828 445S821 448 818 449C814 450 809 452 804 452z" />
    <glyph glyph-name="arrow-left"
      unicode="&#xEA19;"
      horiz-adv-x="1010" d="M470 681C465 681 460 681 458 680S453 678 452 677S391 617 320 546C201 427 191 416 189 411C188 408 187 403 187 400S188 392 189 389C191 384 201 373 320 254C414 160 452 124 455 122C459 120 460 120 468 120C475 120 478 120 482 122C484 123 488 125 490 127S495 133 496 135S498 142 499 145C500 149 500 151 499 155C498 158 497 163 496 165S454 209 394 269L294 369H551C784 369 808 370 812 371C815 372 819 374 822 377S829 384 830 387C832 391 832 394 832 400S832 409 830 413C829 416 825 420 822 423S815 428 812 429C808 430 784 431 551 431H294L394 531C454 591 495 633 496 635S498 642 499 645C500 649 500 651 499 655C498 658 497 663 496 665S492 671 490 673S484 677 482 678C479 680 476 681 470 681z" />
    <glyph glyph-name="arrow-narrow-down"
      unicode="&#xEA1A;"
      horiz-adv-x="1010" d="M512 723C509 723 504 723 502 722S496 720 494 719S489 715 487 712S482 705 481 702C480 698 479 673 479 441V184L420 242C379 283 360 301 357 303C354 304 350 306 345 306S337 306 333 305C330 304 326 301 323 298S316 291 315 288C313 284 313 281 313 275S313 266 315 262S332 242 405 169C486 88 494 81 499 79C502 78 507 77 510 77S518 78 521 79C526 81 534 88 615 169C688 242 703 258 705 262S707 269 707 275S707 284 705 288C704 291 700 295 697 298S690 304 687 305C683 306 680 306 675 306S666 304 663 303C660 301 641 283 600 242L541 184V441C541 674 540 698 539 702C538 705 536 709 533 712S526 719 523 720S515 723 512 723z" />
    <glyph glyph-name="arrow-narrow-left"
      unicode="&#xEA1B;"
      horiz-adv-x="1010" d="M386 598C383 598 378 598 376 597L370 594S327 553 279 505C198 424 191 416 189 411C188 408 187 403 187 400S188 392 189 389C191 384 198 376 279 295C352 222 368 207 372 205S379 203 385 203S394 203 398 205C401 206 405 210 408 213S414 220 415 223C416 227 416 230 416 235S414 244 413 247C411 250 393 269 352 310L294 369H551C784 369 808 370 812 371C815 372 819 374 822 377S829 384 830 387C832 391 832 394 832 400S832 409 830 413C829 416 825 420 822 423S815 428 812 429C808 430 784 431 551 431H294L352 490C393 531 411 550 413 553C414 556 416 560 416 565S416 573 415 577C414 580 411 584 408 587S401 594 398 595S389 598 386 598z" />
    <glyph glyph-name="arrow-narrow-right"
      unicode="&#xEA1C;"
      horiz-adv-x="1010" d="M637 598C634 598 628 598 626 597S621 595 619 594S615 590 612 587S606 580 605 577C604 573 604 570 604 565S606 556 607 553C609 550 627 531 668 490L726 431H469C236 431 212 430 208 429C205 428 201 426 198 423S191 416 190 413C188 409 188 406 188 400S188 391 190 387C191 384 195 380 198 377S205 372 208 371C212 370 236 369 469 369H726L668 310C627 269 609 250 607 247C606 244 604 240 604 235S604 227 605 223C606 220 609 216 612 213S619 206 622 205C626 203 629 203 635 203S644 203 648 205S668 222 741 295C822 376 829 384 831 389C832 392 833 397 833 400S832 408 831 411C829 416 822 424 741 505C668 578 652 593 648 595C645 596 641 598 637 598z" />
    <glyph glyph-name="arrow-narrow-up"
      unicode="&#xEA1D;"
      horiz-adv-x="1010" d="M510 723C506 723 501 722 498 721C494 719 483 709 405 631C332 558 317 542 315 538S313 531 313 525S313 516 315 512C316 509 320 505 323 502S330 496 333 495C337 494 340 494 345 494S354 496 357 497C360 499 379 517 420 558L479 616V359C479 126 480 102 481 98C482 95 484 91 487 88S494 81 497 80C501 78 504 78 510 78S519 78 523 80C526 81 530 85 533 88S538 95 539 98C540 102 541 126 541 359V616L600 558C641 517 660 499 663 497C666 496 670 494 675 494S683 494 687 495C690 496 694 499 697 502S704 509 705 512C707 516 707 519 707 525S707 534 705 538S688 558 615 631C534 712 526 719 521 721C518 722 514 723 510 723z" />
    <glyph glyph-name="arrow-right-circle"
      unicode="&#xEA1E;"
      horiz-adv-x="1010" d="M762 556C768 556 771 555 774 553S798 531 845 485C904 426 912 418 914 413S916 405 916 400S916 392 914 387S904 374 845 315C800 270 777 249 774 247C770 245 768 245 760 245C751 245 750 244 745 247C742 249 739 252 737 254S733 259 732 261C730 265 730 267 730 275S730 285 732 289C734 292 747 306 772 331L809 369H569L329 368L326 361C324 357 323 351 321 348S316 339 313 335S304 324 299 319S287 308 282 305S269 297 264 295S251 290 247 289S234 287 229 286S216 286 212 286S200 287 196 288S186 290 182 291S171 295 168 297S158 302 154 305S144 313 140 317S130 327 128 330S122 340 119 344S112 356 110 361S106 375 105 380S104 394 104 400S104 415 105 420S108 434 110 439S116 452 119 456S126 467 128 470S136 479 140 483S150 492 154 495S165 501 168 503S178 508 182 509S192 512 196 513S208 515 212 515S224 515 229 514S243 512 247 511S259 507 264 505S277 498 282 495S294 486 299 481S310 469 313 465S319 455 321 452S324 443 326 439L329 432L569 431H809L772 469C746 495 734 508 732 511C731 514 729 517 729 522C729 526 729 532 730 534S732 540 734 543S739 549 742 551S748 554 750 555S758 556 762 556zM221 452C216 452 211 452 208 451S200 448 197 447S189 443 186 441S178 433 176 430S170 421 169 417C167 411 167 407 167 400S167 389 169 384C170 380 173 375 176 371S183 362 187 359C190 356 196 353 199 352S208 350 212 349C217 348 221 348 226 349C230 350 237 352 242 354C248 357 251 359 256 364C259 368 263 373 265 377C267 380 268 386 269 388S270 396 270 400S270 410 269 412S267 420 265 423S260 432 257 435S249 442 246 444S239 448 236 449C232 450 227 452 221 452z" />
    <glyph glyph-name="arrow-right"
      unicode="&#xEA1F;"
      horiz-adv-x="1010" d="M553 681C549 681 544 681 542 680S537 677 535 676S530 673 529 671S525 667 524 665S522 658 521 655C520 651 520 649 521 645C522 642 523 637 524 635S566 591 626 531L726 431H469C236 431 212 430 208 429C205 428 201 426 198 423S191 416 190 413C188 409 188 406 188 400S188 391 190 387C191 384 195 380 198 377S205 372 208 371C212 370 236 369 469 369H726L626 269C566 209 525 167 524 165S522 158 521 155C520 151 520 149 521 145C522 142 523 137 524 135S528 129 530 127S536 123 538 122C542 120 545 120 552 120C560 120 561 120 565 122C568 124 606 160 700 254C819 373 829 384 831 389C832 392 833 397 833 400S832 408 831 411C829 416 819 427 700 546C606 640 568 676 565 678C561 680 559 681 553 681z" />
    <glyph glyph-name="arrow-up-circle"
      unicode="&#xEA20;"
      horiz-adv-x="1010" d="M508 806C521 806 537 806 544 805S562 803 570 802S589 799 597 797L625 790S645 784 652 781S672 773 681 769S702 759 709 755S726 744 732 740S747 730 752 726S766 715 771 711S786 699 793 692S809 675 814 669S827 654 831 648S843 632 848 625S861 606 865 598L879 570S888 550 891 542S899 521 901 512S906 490 908 482S912 460 913 451C915 437 915 430 915 400S915 363 913 349C912 340 910 326 908 318S903 296 901 288S894 267 892 260S886 245 885 242S880 232 877 226S869 209 865 202S854 184 849 176S835 158 831 152S819 136 814 130S800 115 794 109S780 97 776 93S765 83 760 79S745 69 739 65S723 54 716 50S697 39 688 35S668 25 662 23S645 17 637 14S616 8 608 6S587 1 579 0S560 -3 554 -4C547 -5 531 -5 509 -5C480 -5 473 -5 459 -3C450 -2 437 1 430 2S412 5 406 7S390 12 383 14S367 20 362 22S346 28 339 31S320 41 313 45S294 56 288 60S273 71 267 75S253 85 248 89S234 101 227 108S211 125 206 131S193 146 189 152S177 168 172 175S159 194 155 202L141 230S132 250 129 258S122 279 120 287S114 310 112 318S108 340 107 349C105 363 105 370 105 400S105 437 107 451C108 460 110 474 112 482S117 504 119 512S126 533 129 541S137 561 140 569S150 588 153 594S162 610 165 615S175 630 180 637S192 654 197 660S212 675 218 682S235 699 242 705S259 719 265 724S282 736 288 740S305 751 313 755S334 766 342 770S363 779 370 782S390 789 398 791S420 796 428 798S449 802 458 803S477 805 480 805S495 806 508 806zM518 743H495S483 743 477 742S459 739 451 738S431 735 424 733S405 727 399 725S383 720 378 718S363 711 356 707S338 698 333 695S321 687 317 684S305 675 299 671S284 658 278 653S263 638 257 632S243 617 239 611S226 595 222 588S211 570 208 564S199 547 196 540S189 523 187 518S183 504 181 498S176 481 175 475S172 459 171 454S169 439 168 433S167 412 167 400S167 373 168 367S170 351 171 346S174 331 175 325S179 308 181 302S185 287 187 282S193 267 196 260S205 242 208 236S217 219 222 212C226 205 235 194 240 188S256 168 267 157C277 147 291 134 297 130S312 120 316 117S328 108 333 105S349 96 357 92S377 83 383 81S400 74 407 72S426 67 433 65S453 61 461 60S482 58 492 57C504 56 515 56 528 57C538 58 551 59 557 60S573 63 580 64S597 68 604 70S620 75 626 77S643 83 650 86S668 95 674 98S691 108 698 112S715 125 721 129S736 141 742 147S758 162 763 168S777 183 781 189S791 203 794 207S802 218 805 223S813 239 817 246S826 264 828 270S835 287 837 294S842 310 843 316S847 332 848 338S851 355 852 363C853 372 853 384 853 400S853 428 852 437C851 445 849 456 848 462S845 479 843 486S838 506 835 513S827 532 824 539S816 556 813 562S804 577 801 583S791 598 787 604S775 619 771 624S758 638 751 645S736 660 732 663L716 675S704 684 698 688S681 698 674 702S654 712 646 715S627 723 621 725S604 731 597 733S577 737 569 738S550 741 544 742S527 743 518 743zM510 598C506 598 501 597 498 596C493 594 483 584 405 506C343 444 317 416 315 413C313 409 313 407 313 400S313 390 315 386C316 383 320 380 323 377S330 372 333 371S340 369 344 369C349 369 352 370 356 372C361 374 370 383 420 433L479 491V359C479 241 480 227 481 223C482 220 484 216 487 213S493 206 496 205C500 203 503 203 510 203S520 203 524 205C527 206 530 210 533 213S538 220 539 223C540 227 541 241 541 359V491L600 433C650 383 659 374 664 372C668 370 671 369 676 369C680 369 684 370 687 371S694 374 697 377S704 383 705 386C707 390 707 393 707 400S707 409 705 413C703 416 677 444 615 506C534 587 526 594 521 596C518 597 514 598 510 598z" />
    <glyph glyph-name="arrow-up-left-circle"
      unicode="&#xEA21;"
      horiz-adv-x="1010" d="M508 806C523 806 538 806 548 805C556 804 570 801 579 800S601 796 610 794S632 788 640 785S661 777 669 774S687 766 692 764S706 756 711 753S727 743 735 738S754 725 759 721S773 709 779 704S795 690 802 683S818 666 823 660S835 644 840 637S852 620 855 615S864 600 867 594S877 577 880 569S888 549 891 541S899 520 901 512S906 490 908 482S912 460 913 451C915 437 915 430 915 400S915 363 913 349C912 340 910 326 908 318S902 295 900 287S894 266 891 259S883 240 880 233S872 216 869 210S861 195 858 190S849 176 845 170S835 155 831 150S819 137 814 131S800 115 793 108S776 92 770 87S754 75 747 70S731 59 725 55S708 45 700 41S679 31 670 27S648 18 640 15S619 8 610 6S588 1 579 0S556 -4 547 -5C534 -6 524 -6 502 -6C481 -6 469 -5 458 -3C449 -2 436 0 428 2S406 7 398 9S377 16 370 18S355 24 352 25S342 30 336 33S319 41 312 45S294 56 288 60S273 70 268 74S254 85 249 89S235 102 228 108S212 125 206 131S193 146 189 151S179 165 175 171S164 187 160 194S149 213 145 222S135 244 132 252S125 271 123 277S117 295 115 303S110 323 109 331S106 353 105 362S104 388 104 400S104 429 105 438S108 461 109 469S113 489 115 497S121 517 123 523S129 540 132 548S141 569 145 578S156 599 160 606S171 623 175 629S185 644 189 649S200 663 206 669S221 686 228 692S244 708 250 713S266 725 273 730S290 742 295 745S310 754 316 757S333 767 341 770S361 778 368 781S388 787 397 790S420 796 428 798S449 802 458 803S477 805 479 805S494 806 508 806zM518 743H488S469 741 461 740S440 737 433 735S414 730 407 728S389 721 383 719S365 712 357 708S338 698 333 695S320 686 316 683S303 674 297 670S277 653 267 643S244 619 240 613S230 598 227 594S218 582 215 577S207 561 203 554S194 536 192 530S185 513 183 506S178 490 177 484S173 468 172 462S169 445 168 437C167 428 167 416 167 400S167 372 168 363C169 355 171 344 172 338S176 322 177 316S181 301 183 294S190 277 192 271S199 253 203 246S212 228 215 223S224 210 227 206S236 193 240 187S257 167 267 157C278 146 292 135 298 130S314 117 320 113S337 104 343 100S360 91 367 88S385 80 392 77S410 72 416 70S433 65 440 64S458 61 464 60S483 58 492 57S513 57 520 57S538 57 544 58S561 61 569 62S587 66 593 67S609 71 616 73S633 80 639 82S657 89 664 93S682 102 687 105S700 114 704 117S717 126 723 130S741 145 749 153S767 172 771 176S781 190 786 196S797 211 801 217S811 235 816 244S826 265 828 271S835 288 837 296S843 316 845 323S849 343 850 351S852 372 853 382C854 394 854 406 853 418C852 428 851 441 850 449S847 470 845 477S839 496 837 504S830 523 828 529S821 547 816 556S805 577 801 583S791 598 786 604S775 620 771 624S757 639 749 647S729 666 723 670S709 680 704 683S690 692 684 696S667 706 661 709S645 716 639 718S623 725 616 727S600 732 594 733S578 737 572 738S555 740 548 741S527 743 518 743zM512 556H379L370 553C367 552 364 549 362 547S358 541 357 538L354 532V401C354 315 354 268 355 266S357 260 359 257S364 251 367 249S374 246 376 245S384 244 388 244C393 244 396 246 400 248C403 250 406 252 408 254S412 259 413 261L416 266V449L516 349C585 280 618 249 621 247C625 245 627 245 635 245C644 245 645 244 650 247C653 249 656 252 658 254S662 259 663 261C665 265 665 267 665 275S665 285 663 289C661 292 630 325 561 394L461 494H644L649 497C651 498 654 500 656 502S660 507 662 510C664 514 666 517 666 522C666 526 666 532 665 534S663 540 661 543S656 549 653 551S646 554 644 555S593 556 512 556z" />
    <glyph glyph-name="arrow-up-left"
      unicode="&#xEA22;"
      horiz-adv-x="1010" d="M491 640C307 640 297 640 292 638C289 637 285 635 283 634S278 629 276 626S272 619 271 616C270 612 270 586 270 419V226L274 220C276 215 278 212 282 209C285 207 290 204 293 203C297 202 300 202 304 202C307 202 312 204 315 205S323 210 325 212S329 218 330 221L332 226L333 379V532L517 349C683 183 701 165 706 163C710 161 713 161 718 161S727 161 731 163C734 164 737 167 740 170S746 177 747 180C749 184 749 187 749 192S749 200 747 204C745 209 727 227 561 393L378 577H531L684 578L689 580C692 581 696 583 698 585S704 592 705 595S708 603 708 606C708 610 708 613 707 617C706 620 703 625 701 628C698 632 695 634 690 636L684 640H491z" />
    <glyph glyph-name="arrow-up-right-circle"
      unicode="&#xEA23;"
      horiz-adv-x="1010" d="M508 806C523 806 538 806 548 805C556 804 570 801 579 800S601 796 610 794S632 788 640 785S661 777 669 774S687 766 692 764S706 756 711 753S727 743 735 738S754 725 759 721S773 709 779 704S795 690 802 683S818 666 823 660S835 644 840 637S852 620 855 615S864 600 867 594S877 577 880 569S888 549 891 541S899 520 901 512S906 490 908 482S912 460 913 451C915 437 915 430 915 400S915 363 913 349C912 340 910 326 908 318S902 295 900 287S894 266 891 259S883 240 880 233S872 216 869 210S861 195 858 190S849 176 845 170S835 155 831 150S819 137 814 131S800 115 793 108S776 92 770 87S754 75 747 70S731 59 725 55S708 45 700 41S679 31 670 27S648 18 640 15S619 8 610 6S588 1 579 0S556 -4 547 -5C534 -6 524 -6 502 -6C481 -6 469 -5 458 -3C449 -2 436 0 428 2S406 7 398 9S377 16 370 18S355 24 352 25S342 30 336 33S319 41 312 45S294 56 288 60S273 70 268 74S254 85 249 89S235 102 228 108S212 125 206 131S193 146 189 151S179 165 175 171S164 187 160 194S149 213 145 222S135 244 132 252S125 271 123 277S117 295 115 303S110 323 109 331S106 353 105 362S104 388 104 400S104 429 105 438S108 461 109 469S113 489 115 497S121 517 123 523S129 540 132 548S141 569 145 578S156 599 160 606S171 623 175 629S185 644 189 649S200 663 206 669S221 686 228 692S244 708 250 713S266 725 273 730S290 742 295 745S310 754 316 757S333 767 341 770S361 778 368 781S388 787 397 790S420 796 428 798S449 802 458 803S477 805 479 805S494 806 508 806zM518 743H488S469 741 461 740S440 737 433 735S414 730 407 728S389 721 383 719S365 712 357 708S338 698 333 695S320 686 316 683S303 674 297 670S277 653 267 643S244 619 240 613S230 598 227 594S218 582 215 577S207 561 203 554S194 536 192 530S185 513 183 506S178 490 177 484S173 468 172 462S169 445 168 437C167 428 167 416 167 400S167 372 168 363C169 355 171 344 172 338S176 322 177 316S181 301 183 294S190 277 192 271S199 253 203 246S212 228 215 223S224 210 227 206S236 193 240 187S257 167 267 157C278 146 292 135 298 130S314 117 320 113S337 104 343 100S360 91 367 88S385 80 392 77S410 72 416 70S433 65 440 64S458 61 464 60S483 58 492 57S513 57 520 57S538 57 544 58S561 61 569 62S587 66 593 67S609 71 616 73S633 80 639 82S657 89 664 93S682 102 687 105S700 114 704 117S717 126 723 130S741 145 749 153S767 172 771 176S781 190 786 196S797 211 801 217S811 235 816 244S826 265 828 271S835 288 837 296S843 316 845 323S849 343 850 351S852 372 853 382C854 394 854 406 853 418C852 428 851 441 850 449S847 470 845 477S839 496 837 504S830 523 828 529S821 547 816 556S805 577 801 583S791 598 786 604S775 620 771 624S757 639 749 647S729 666 723 670S709 680 704 683S690 692 684 696S667 706 661 709S645 716 639 718S623 725 616 727S600 732 594 733S578 737 572 738S555 740 548 741S527 743 518 743zM638 556H376L371 553C369 552 366 550 364 548S359 543 357 540C354 535 354 534 354 525S354 515 357 510C359 507 362 504 364 502S369 498 371 497L376 494H559L459 394C390 325 359 292 357 289C355 285 355 283 355 275C355 266 354 265 357 260C359 257 362 254 364 252S369 248 371 247C375 245 377 245 385 245S395 245 399 247C402 249 435 280 504 349L604 449V266L607 261C608 259 610 256 612 254S617 250 620 248C624 246 627 244 632 244C636 244 642 244 644 245S650 247 653 249S659 254 661 257S664 264 665 266S666 315 666 401V532L663 538C662 541 659 545 657 547S651 552 648 553S641 556 638 556z" />
    <glyph glyph-name="arrow-up-right"
      unicode="&#xEA24;"
      horiz-adv-x="1010" d="M533 640C383 640 340 640 336 639C333 638 330 637 327 635S321 630 319 627S314 620 313 617C312 613 312 610 312 606C312 603 314 598 315 596S318 589 320 587S327 582 330 580L336 578L489 577H642L459 393C293 227 275 209 273 204C271 200 271 197 271 192S271 184 273 180C274 177 277 173 280 170S286 164 289 163C293 161 297 161 302 161S310 161 314 163C319 165 337 183 503 349L687 532V379L688 226L690 221C691 218 693 214 695 212S702 206 705 205S713 202 716 202C720 202 723 202 727 203C730 204 735 207 738 209C742 212 744 215 746 220L750 226V616L746 622C744 626 742 631 740 632S734 636 731 637L726 640H533z" />
    <glyph glyph-name="arrow-up"
      unicode="&#xEA25;"
      horiz-adv-x="1010" d="M510 723C506 723 501 722 498 721C494 719 479 705 364 590C270 496 234 458 232 455C230 451 230 450 230 442C230 435 230 431 232 428C233 426 236 423 237 421S241 416 243 415S250 412 253 411C257 410 261 410 263 410S269 412 272 413C277 414 284 421 378 515L479 616V359C479 126 480 102 481 98C482 95 484 91 487 88S494 81 497 80C501 78 504 78 510 78S519 78 523 80C526 81 530 85 533 88S538 95 539 98C540 102 541 126 541 359V616L641 516C701 456 743 415 745 414S752 412 755 411C759 410 761 410 765 411C768 412 773 413 775 414S780 418 782 420S787 426 788 428C790 432 790 435 790 442C790 450 790 451 788 455C786 458 750 496 656 590C537 709 526 719 521 721C518 722 514 723 510 723z" />
    <glyph glyph-name="arrows-diagonal-2"
      unicode="&#xEA26;"
      horiz-adv-x="1010" d="M262 765L350 764L356 762C359 761 363 757 365 755S371 749 372 746C374 742 374 738 374 733C374 727 374 726 371 720C369 715 367 712 363 709C360 707 356 705 353 704C349 703 340 702 300 702H253L353 601C443 511 454 500 456 496C457 493 457 488 457 483S457 474 455 471C454 468 452 464 450 462S443 457 440 455C435 453 433 452 427 452C422 452 417 453 414 454C410 456 399 467 309 557L208 657V610C208 570 207 561 206 557C205 554 203 550 201 547C198 543 195 541 190 539C184 536 183 536 177 536C172 536 168 536 164 538C161 539 157 543 155 545S149 551 148 554L146 560L145 648C145 724 145 737 146 741C147 744 149 748 151 751S156 758 158 759S164 762 167 763C172 765 178 765 262 765zM595 348C590 348 587 347 583 346C580 345 577 344 575 342L568 335S564 328 563 325C562 321 562 318 562 314C562 311 564 306 565 303C567 299 584 281 667 198L767 98H720C680 98 671 97 667 96C664 95 660 93 657 91C653 88 651 85 649 80C646 74 646 73 646 67C646 62 646 58 648 54C649 51 653 47 655 45S661 39 664 38L670 36H851L857 39C861 41 866 43 867 45S871 51 872 54L874 60V240L872 246C871 249 867 253 865 255S859 261 856 262C852 264 848 264 843 264C837 264 836 264 830 261C825 259 822 257 819 253C817 250 815 246 814 243C813 239 812 230 812 190V143L712 243C628 327 611 343 607 345C604 346 599 348 595 348z" />
    <glyph glyph-name="arrows-diagonal"
      unicode="&#xEA27;"
      horiz-adv-x="1010" d="M762 765L850 764L856 762C859 761 863 758 865 757S869 751 871 747L874 741V560L872 554C871 551 867 547 865 545S859 539 856 538C852 536 848 536 843 536C837 536 836 536 830 539C825 541 822 543 819 547C817 550 815 554 814 557C813 561 812 570 812 610V657L711 557C621 467 610 456 606 454C603 453 598 453 593 453S584 453 581 455C578 456 574 458 572 460S567 467 565 470C563 475 562 477 562 483C562 488 563 493 564 496C566 500 577 511 667 601L767 702H720C680 702 671 703 667 704C664 705 660 707 657 709C653 712 651 715 649 720C646 726 646 727 646 733C646 738 646 742 648 746C649 749 653 753 655 755S660 760 662 761S668 764 670 764C672 765 713 765 762 765zM428 348C424 348 420 348 418 347S412 345 411 344S363 298 308 243L208 143V190C208 230 207 239 206 243C205 246 203 250 201 253C198 257 195 259 190 261C184 264 183 264 177 264C172 264 168 264 164 262C161 261 157 257 155 255S149 249 148 246L146 240V59L149 53C151 49 153 44 155 43S161 39 164 38L170 36H350L356 38C359 39 363 43 365 45S371 51 372 54C374 58 374 62 374 67C374 73 374 74 371 80C369 85 367 88 363 91C360 93 356 95 353 96C349 97 340 98 300 98H253L353 199C443 289 454 300 456 304C457 307 458 312 458 317C458 323 457 325 455 330C453 333 450 338 448 340S442 344 439 345S432 348 428 348z" />
    <glyph glyph-name="arrows-maximize"
      unicode="&#xEA28;"
      horiz-adv-x="1010" d="M262 765L350 764L356 762C359 761 363 757 365 755S371 749 372 746C374 742 374 738 374 733C374 727 374 726 371 720C369 715 367 712 363 709C360 707 356 705 353 704C349 703 340 702 300 702H253L353 601C443 511 454 500 456 496C457 493 457 488 457 483S457 474 455 471C454 468 452 464 450 462S443 457 440 455C435 453 433 452 427 452C422 452 417 453 414 454C410 456 399 467 309 557L208 657V610C208 570 207 561 206 557C205 554 203 550 201 547C198 543 195 541 190 539C184 536 183 536 177 536C172 536 168 536 164 538C161 539 157 543 155 545S149 551 148 554L146 560L145 648C145 724 145 737 146 741C147 744 149 748 151 751S156 758 158 759S164 762 167 763C172 765 178 765 262 765zM762 765L850 764L856 762C859 761 863 758 865 757S869 751 871 747L874 741V560L872 554C871 551 867 547 865 545S859 539 856 538C852 536 848 536 843 536C837 536 836 536 830 539C825 541 822 543 819 547C817 550 815 554 814 557C813 561 812 570 812 610V657L711 557C621 467 610 456 606 454C603 453 598 453 593 453S584 453 581 455C578 456 574 458 572 460S567 467 565 470C563 475 562 477 562 483C562 488 563 493 564 496C566 500 577 511 667 601L767 702H720C680 702 671 703 667 704C664 705 660 707 657 709C653 712 651 715 649 720C646 726 646 727 646 733C646 738 646 742 648 746C649 749 653 753 655 755S660 760 662 761S668 764 670 764C672 765 713 765 762 765zM428 348C432 348 436 346 439 345S446 342 448 340S453 333 455 330C457 325 458 323 458 317C458 312 457 307 456 304C454 300 443 289 353 199L253 98H300C340 98 349 97 353 96C356 95 360 93 363 91C367 88 369 85 371 80C374 74 374 73 374 67C374 62 374 58 372 54C371 51 367 47 365 45S359 39 356 38L350 36H170L164 38C161 39 157 42 155 43S151 49 149 53L146 59V240L148 246C149 249 153 253 155 255S161 261 164 262C168 264 172 264 177 264C183 264 184 264 190 261C195 259 198 257 201 253C203 250 205 246 206 243C207 239 208 230 208 190V143L308 243C363 298 410 343 411 344S416 346 418 347S424 348 428 348zM595 348C590 348 587 347 583 346C580 345 577 344 575 342L568 335S564 328 563 325C562 321 562 318 562 314C562 311 564 306 565 303C567 299 584 281 667 198L767 98H720C680 98 671 97 667 96C664 95 660 93 657 91C653 88 651 85 649 80C646 74 646 73 646 67C646 62 646 58 648 54C649 51 653 47 655 45S661 39 664 38L670 36H851L857 39C861 41 866 43 867 45S871 51 872 54L874 60V240L872 246C871 249 867 253 865 255S859 261 856 262C852 264 848 264 843 264C837 264 836 264 830 261C825 259 822 257 819 253C817 250 815 246 814 243C813 239 812 230 812 190V143L712 243C628 327 611 343 607 345C604 346 599 348 595 348z" />
    <glyph glyph-name="arrows-minimize"
      unicode="&#xEA29;"
      horiz-adv-x="1010" d="M136 806C142 806 146 805 149 803S182 773 254 701L354 601V649C354 691 355 698 356 702C357 705 359 709 362 712S368 719 371 720C375 722 378 722 385 722S395 722 399 720C402 719 405 715 408 712S413 705 414 702C415 698 416 686 416 608V518L413 512C412 509 409 505 407 503S401 498 398 497L392 494H302C224 494 212 495 208 496C205 497 201 499 198 502S191 508 190 511C188 515 188 518 188 525S188 535 190 539C191 542 195 545 198 548S205 553 208 554C212 555 219 556 261 556H309L209 656C137 728 109 758 107 761C106 764 104 767 104 772C104 776 104 782 105 784S107 790 109 793S114 799 117 801S123 804 125 805S132 806 136 806zM887 806C894 806 896 804 900 802C903 800 906 798 908 796S912 791 913 789C915 785 915 783 915 775S915 765 913 761C911 758 880 725 811 656L711 556H759C801 556 808 555 812 554C815 553 819 551 822 548S829 542 830 539C832 535 832 532 832 525S832 515 830 511C829 508 825 505 822 502S815 497 812 496C808 495 796 494 718 494H628L622 496C619 497 615 501 613 503S608 509 607 512L604 518V608C604 686 605 698 606 702C607 705 609 709 612 712S618 719 621 720C625 722 628 722 635 722S645 722 649 720C652 719 655 715 658 712S663 705 664 702C665 698 666 691 666 649V601L766 701C821 756 868 802 870 803S875 805 876 805S883 806 887 806zM388 306C391 306 395 304 398 303S405 299 407 297S412 291 413 288L416 282V192C416 114 415 102 414 98C413 95 411 91 408 88S402 81 399 80C395 78 392 78 385 78S375 78 371 80C368 81 365 85 362 88S357 95 356 98C355 102 354 109 354 151V199L254 99C185 30 152 -1 149 -3C145 -5 143 -5 135 -5S125 -5 121 -3C119 -2 116 0 114 2S109 7 107 10C104 15 105 16 105 25C105 33 105 35 107 39C109 42 140 75 209 144L309 244H261C219 244 212 245 208 246C205 247 201 249 198 252S191 258 190 261C188 265 188 268 188 275S188 285 190 289C191 292 194 296 197 298S204 303 206 304C209 306 218 306 296 306H388zM720 306H629L620 303C617 302 614 299 612 297S608 291 607 288L604 282V192C604 114 605 102 606 98C607 95 609 91 612 88S618 81 621 80C625 78 628 78 635 78S645 78 649 80C652 81 655 85 658 88S663 95 664 98C665 102 666 109 666 151V199L766 99C835 30 868 -1 871 -3C875 -5 877 -5 885 -5C894 -5 895 -6 900 -3C903 -1 906 2 908 4S912 9 913 11C915 15 915 17 915 25S915 35 913 39C911 42 880 75 811 144L711 244H759C801 244 808 245 812 246C815 247 819 249 822 252S829 258 830 261C832 265 832 268 832 275S832 285 830 289C829 292 825 295 822 298S815 303 812 304C808 305 796 306 720 306z" />
    <glyph glyph-name="artboard"
      unicode="&#xEA2A;"
      horiz-adv-x="1010" d="M344 806C350 806 352 805 357 803C361 801 364 799 367 796C369 793 372 789 373 786C375 782 374 776 374 753V726L371 720C369 715 367 712 363 709C360 707 355 704 352 703C348 702 345 702 341 702C338 702 333 704 330 705S322 710 320 712S316 718 315 721C313 725 312 726 312 754V784L315 789C316 792 320 795 323 798S330 803 332 804S340 806 344 806zM676 806C680 806 684 805 687 804S694 801 697 798S704 792 705 789L708 784V754C708 726 707 725 705 721C704 718 702 714 700 712S693 706 690 705S682 702 679 702C675 702 672 702 668 703C665 704 660 707 657 709C653 712 651 715 649 720L646 726V754C646 781 646 783 648 787C649 790 652 794 654 796S661 801 664 803C669 805 671 806 676 806zM157 598C183 598 185 597 189 595C192 594 196 592 198 590S204 583 205 580S208 572 208 569C208 565 208 562 207 558C206 555 203 550 201 547C198 543 195 541 190 539L184 536H156C129 536 127 536 123 538C120 539 116 542 114 544S109 551 107 554C105 559 104 561 104 566C104 570 105 574 106 577S110 584 112 587S118 593 120 594S126 597 127 597S142 598 157 598zM512 598H648L656 595C660 594 665 591 669 589S678 584 681 582S688 574 691 571S697 563 699 559S704 549 705 545L708 538V262L705 255C704 251 701 245 699 241S694 232 692 229S684 222 681 219S673 213 669 211S659 206 655 205L648 202H372L365 205C361 206 355 208 352 210S343 214 340 217L329 228S323 237 321 241S316 250 315 254L312 262V397C312 512 312 533 313 539C314 543 316 549 317 552S321 561 323 564S330 572 334 576S343 585 346 587S355 592 358 593L370 597C375 598 401 598 512 598zM866 598H894L899 595C902 594 905 590 908 587S913 580 914 577S916 570 916 566C916 561 915 559 913 554C911 551 908 546 906 544S900 539 897 538C893 536 891 536 864 536H836L830 539C825 541 822 543 819 547C817 550 815 554 814 557S812 564 812 566S812 573 813 576S816 583 818 585L825 592S830 595 833 596C838 598 842 598 866 598zM510 535H381L378 532L375 529V271L378 268L381 265H639L642 268L645 271V529L642 532L639 535H510zM158 265L184 264L190 261C195 259 198 257 201 253C203 250 206 245 207 242C208 238 208 235 208 231C208 228 206 223 205 220S200 212 198 210S192 206 189 205C185 203 184 202 156 202H126L121 205C118 206 115 210 112 213S107 220 106 223S104 230 104 234C104 239 105 241 107 246C109 249 112 254 114 256S120 261 122 262S127 264 129 264S144 265 158 265zM866 265C890 265 893 264 897 262C900 261 904 258 906 256S911 249 913 246C915 241 916 239 916 234C916 230 915 226 914 223S911 216 908 213S902 206 899 205L894 202H836L830 205C827 207 822 210 820 212S816 219 815 221S812 228 812 231C812 235 812 238 813 242C814 245 817 249 819 252S824 258 827 260S833 263 836 264S847 265 866 265zM343 98C346 98 350 97 353 96S360 93 363 91C367 88 369 85 371 80L374 74V47C374 24 375 18 373 14C372 11 369 7 367 4C364 1 361 -1 357 -3C352 -5 349 -6 344 -6C340 -6 336 -5 333 -4S326 -1 323 2S316 8 315 11L312 16V43C312 65 312 71 313 75C314 78 316 83 318 85L325 92S330 95 333 96S340 98 343 98zM678 98C673 98 670 97 666 96C663 95 659 93 657 91C654 89 651 84 649 80L646 74V46C646 19 646 17 648 13C649 10 652 6 654 4S661 -1 664 -3C669 -5 671 -6 676 -6C680 -6 684 -5 687 -4S694 -1 697 2S704 8 705 11L708 16V46C708 74 707 75 705 79C704 82 702 86 700 88S693 94 690 95C686 97 683 98 678 98z" />
    <glyph glyph-name="at"
      unicode="&#xEA2B;"
      horiz-adv-x="1010" d="M508 807C516 807 528 807 536 806S557 804 565 803S585 800 590 799S604 795 610 794S625 790 632 788S652 781 660 778S680 769 688 765S710 755 718 750S735 738 740 735S751 727 753 726S761 720 766 716S780 704 786 699S801 683 807 677S822 661 827 655S839 640 843 634S854 617 858 610S870 588 875 578S886 554 889 546S896 527 898 520S903 503 905 496S910 477 911 469S914 447 915 438C916 427 916 409 916 373C916 333 915 322 914 315C913 310 912 302 910 297S905 284 903 279S896 267 893 262S883 249 878 243S864 231 860 228S849 221 844 218S831 211 824 209S807 204 800 203C791 202 785 202 775 202C768 202 758 204 753 205S741 208 737 209S726 214 722 216S710 221 706 224S695 233 691 236S682 246 678 250S669 262 666 266S661 273 661 272S656 267 650 261S637 248 633 245S623 237 618 234S603 225 596 222S579 214 572 212S556 207 550 206S535 204 530 203S515 202 509 202S493 202 487 203S471 206 466 207S453 210 448 212S434 217 429 219S415 226 410 229S397 237 393 240S381 249 377 253S366 265 362 269S352 280 349 285S341 298 338 303S330 317 328 323S322 337 321 341S318 351 317 356S314 371 313 377S312 394 312 400S312 417 313 423S316 439 317 444S320 455 321 459S326 471 328 477S335 492 338 497S346 510 349 515S358 527 362 531S373 543 377 547S389 557 393 560S405 568 410 571S424 579 430 581S443 586 448 588S461 592 466 593S481 596 487 597S503 598 509 598S525 598 530 597S544 595 550 594S566 590 572 588S588 582 593 580S607 573 612 570S624 562 628 559S639 551 643 547L657 533S666 522 669 518S678 505 681 500S689 486 691 481S696 467 698 462S702 449 703 444S706 429 707 423C708 415 708 399 708 371C708 338 709 329 710 323C711 319 713 313 714 310S717 301 720 297S728 287 731 284S740 277 744 275S754 269 758 268C764 266 769 265 778 265C788 265 791 265 798 267C803 268 809 270 812 272S821 277 825 280S834 288 837 291S844 302 846 306S851 316 852 320C853 325 854 333 854 362C854 382 854 406 853 417S851 443 850 450S846 468 845 475S841 492 839 498S834 514 832 520S825 537 822 544S814 562 810 568S800 585 795 592S782 609 777 616S762 635 754 643S735 661 730 665S715 677 709 681S694 692 688 695S671 704 664 708S644 717 637 720S617 728 609 730S587 735 579 737S559 741 552 742S530 744 518 744C505 744 492 744 484 743C477 742 466 741 460 740S442 738 434 736S413 730 406 728S388 722 381 719S363 712 356 708S339 698 334 695S320 687 314 683S300 672 294 667S275 652 267 644S248 623 242 616S229 597 224 590S213 573 209 566S200 547 196 539S187 519 185 512S180 494 178 487S173 468 172 460S169 441 168 434S167 412 167 400S167 374 168 368S170 351 171 344S175 324 177 316S182 296 184 290S191 273 194 266S202 248 206 241S214 226 217 221S226 208 229 203S238 190 242 185S254 171 259 166S273 151 279 146S297 131 304 126S320 114 326 110S346 99 356 94S381 82 389 79S409 72 415 70S433 66 441 64S461 60 468 59C478 58 488 58 510 58S543 58 552 59C559 60 570 63 577 64S596 68 604 70S625 77 633 80C644 84 648 86 654 86C659 86 663 86 667 84C670 83 674 80 677 78C679 76 683 71 684 68C686 64 686 62 686 55S686 46 684 42C683 39 679 34 677 32C674 29 670 27 664 25C659 23 649 18 640 15S618 9 610 7S589 2 582 1S562 -3 554 -4C543 -5 531 -5 510 -5S478 -5 467 -4C459 -3 447 -1 441 0S423 4 415 6S395 11 389 13S372 18 365 21S349 28 346 29S334 34 326 38S307 48 302 51S288 60 282 64S268 74 263 78S250 88 245 93S229 107 223 113S207 129 202 135S190 150 186 156S175 172 170 179S159 196 156 201S148 216 144 224S135 244 132 251S126 269 124 275S118 293 116 300S112 319 111 326S107 346 106 354C105 365 105 374 105 400S105 437 106 448C107 456 110 468 111 475S115 495 117 502S121 520 123 525S129 542 132 550S142 572 146 581S158 603 162 610S173 628 177 634S188 649 192 654S205 669 211 676S228 694 235 700S252 715 258 719S273 730 278 734S292 743 297 746S311 754 318 758S334 766 340 769S355 776 362 779S381 786 388 788S404 793 410 794S424 798 430 799S447 802 455 803S475 806 481 806S500 807 508 807zM513 535C501 535 493 534 487 533C482 532 474 531 468 529S454 523 449 521S436 513 432 510S420 500 415 495S403 482 400 478S391 466 389 461S383 448 381 442S378 427 377 422S375 407 375 400S376 383 377 378S379 364 381 359S386 345 389 340S397 327 400 322S410 310 415 305S428 293 432 290S444 282 450 279S464 273 469 271S483 267 489 266C497 265 503 265 515 265C525 265 533 267 539 268C544 269 549 271 552 272S560 274 564 276S575 281 580 284S592 292 597 296S608 307 612 311S621 321 623 325S629 336 631 341S637 354 639 359S642 373 643 378S645 393 645 400S644 417 643 422S641 436 639 441S634 455 631 460S624 473 621 477S614 486 611 490S601 499 597 503S588 511 585 513S575 518 570 521S558 527 554 528S544 531 539 532C533 533 526 535 513 535z" />
    <glyph glyph-name="award"
      unicode="&#xEA2C;"
      horiz-adv-x="1010" d="M508 806C520 806 534 806 542 805C549 804 559 802 564 801S578 798 582 797S596 794 603 791S625 782 634 777S657 765 665 760S683 748 687 744S700 733 706 727S721 712 726 706S738 690 743 682S756 661 760 654S769 636 771 630S776 616 778 610S783 593 784 587S788 570 789 564C790 555 790 546 790 525S790 495 789 486C788 480 785 469 784 463S780 446 778 439S771 421 768 414C764 404 763 401 764 399C765 398 794 346 830 284S896 168 897 166C898 163 899 159 899 154S899 146 897 142C896 139 892 135 890 133S885 127 882 126S875 124 873 124S842 125 808 127S743 131 741 131H737L708 72C688 31 678 11 675 8C673 6 668 3 665 1C660 -1 658 -1 652 -1S643 -1 639 1C636 2 632 5 630 7S603 52 569 111C537 166 510 211 510 211S483 166 451 111C417 53 392 9 390 7S384 2 381 1C377 -1 374 -1 368 -1S360 -1 355 1C352 3 347 6 345 8C342 11 332 31 312 72L283 131H279C277 131 246 129 212 127S149 124 147 124S141 125 138 126S132 131 130 133S124 139 123 142C121 146 121 149 121 154C121 158 121 163 122 165S154 221 190 284C233 358 256 399 256 401C256 402 254 408 252 413S246 429 243 437S237 457 236 463S232 480 231 486C230 495 230 503 230 525S230 555 231 564C232 570 235 581 236 587S239 603 241 608S245 622 248 629S256 647 260 654S272 674 277 682S289 700 294 706S308 721 314 727S329 740 333 744S348 754 355 759S375 771 382 775S400 783 406 786S422 792 427 794S442 798 448 799S464 802 470 803S483 805 485 805S497 806 508 806zM508 744C506 744 498 743 492 743S475 740 468 739S448 734 441 732S421 725 414 722S397 712 391 708S377 698 373 695S361 684 356 679S343 666 340 662S331 650 327 644S317 627 313 620S305 601 303 594S297 575 296 568S293 548 292 540C291 529 291 521 292 510C293 502 295 489 296 482S301 463 303 456S310 437 313 430S323 412 327 406S336 392 340 388S351 376 356 371S369 359 373 355S385 346 391 342S407 332 414 329S430 322 435 320S450 315 455 314S468 311 473 310S488 308 496 307C506 306 514 306 524 307C532 308 542 309 547 310S559 312 564 313S576 317 582 319S599 325 606 328S623 338 629 342S643 351 647 355S659 366 664 371S676 384 680 388S689 400 693 406S703 423 707 430S715 449 717 456S723 474 724 480S726 494 727 499S728 515 728 525S728 546 727 551S725 564 724 570S719 587 717 594S710 613 707 620S697 638 693 644S684 658 680 662S669 675 664 680S652 691 648 695S635 704 629 708S612 718 605 722S586 730 579 732S559 738 552 739S534 742 526 743S510 744 508 744zM308 330L296 342L253 266C229 224 209 190 209 190S225 191 244 192S286 195 294 195C309 196 309 195 314 193C317 192 322 188 324 186C327 183 333 172 349 139L370 96L414 172C438 214 458 248 458 248S453 250 447 251S431 255 424 257S407 264 401 266S385 273 379 276S362 287 354 292S336 304 330 309S314 323 308 330zM724 341S718 337 712 330S696 314 690 309S674 296 666 291C657 285 644 278 634 273C623 268 610 262 600 259C591 256 579 252 573 251S562 248 562 248S582 214 606 172L650 96L671 139C687 170 693 183 696 186C698 188 702 192 705 193C709 195 712 195 718 195C722 195 745 193 768 192S811 190 811 190S792 225 768 266S724 341 724 341z" />
    <glyph glyph-name="backspace"
      unicode="&#xEA2D;"
      horiz-adv-x="1010" d="M618 681L858 680L865 678C869 677 874 674 878 672C883 669 889 666 895 660C903 652 904 649 908 641C911 636 913 628 914 624C915 618 916 594 916 400S915 182 914 176C913 172 911 164 908 159C904 151 903 148 895 140S884 131 876 127C871 124 863 122 859 121C852 120 829 119 614 119L376 120L371 122C368 124 334 157 260 230C202 288 152 339 149 343S142 353 140 357S135 367 134 371S132 381 131 384S130 394 130 400S130 413 131 416S133 425 134 429S137 439 139 442S144 451 146 454C149 458 189 498 257 566C316 625 365 675 367 676L375 680C378 681 418 681 618 681zM621 619H398L297 518C207 428 196 416 194 412C193 409 192 404 192 400S193 391 194 388C196 384 207 372 297 282L398 181H621C814 181 845 181 848 182C850 183 852 185 853 187C854 190 854 219 854 400S854 610 853 613C852 615 850 617 848 618C845 619 814 619 621 619zM512 514C509 514 505 514 502 513S496 512 495 511S491 508 489 506S484 499 482 496C480 491 479 489 479 484C479 480 480 475 481 472C482 468 486 464 516 434L549 400L516 366C486 336 482 332 481 328C480 325 479 320 479 316C479 311 480 308 482 303C484 299 486 296 489 293C492 291 496 288 499 287S507 286 510 286S518 286 521 287C526 289 529 291 560 322C578 340 593 355 594 355S609 341 627 323C653 297 660 290 664 288S672 286 677 286C683 286 684 286 690 289C695 291 698 293 701 297C703 300 706 305 707 308C708 312 708 315 708 319C708 322 706 327 705 330C703 334 696 341 670 367L638 400L670 433C696 459 703 466 705 470C706 473 708 478 708 481C708 485 708 488 707 492C706 495 703 500 701 503C698 507 695 509 690 511C684 514 683 514 677 514C672 514 668 514 664 512S653 503 627 477C609 459 595 445 594 445S578 460 560 478C530 507 526 511 522 512C519 513 514 514 512 514z" />
    <glyph glyph-name="ban"
      unicode="&#xEA2E;"
      horiz-adv-x="1010" d="M508 806C523 806 538 806 548 805C556 804 570 801 579 800S601 796 610 794S632 788 640 785S661 777 669 774S687 766 692 764S706 756 711 753S727 743 736 737S758 722 765 716S786 698 796 688S818 666 823 660S835 644 840 637S852 620 855 615S864 600 867 594S877 577 880 569S888 550 891 542S898 521 900 513S906 490 908 482S912 460 913 451C915 437 915 430 915 400S915 363 913 349C912 340 910 326 908 318S903 297 901 289S895 269 892 262S885 243 882 236S873 217 870 211S861 195 858 190S849 176 845 170S835 155 831 150S819 137 814 131S800 115 793 108S776 92 770 87S754 75 747 70S731 59 725 55S708 45 700 41S679 31 670 27S648 18 640 15S619 8 610 6S588 1 579 0S556 -4 547 -5C534 -6 524 -6 502 -6C481 -6 469 -5 458 -3C449 -2 436 0 428 2S406 7 398 9S377 16 370 18S355 24 352 25S342 30 336 33S319 41 312 45S294 56 288 60S273 70 268 74S254 85 249 89S235 102 228 108S212 125 206 131S193 146 189 151S179 165 175 171S164 187 160 194S149 213 145 222S135 244 132 252S125 271 123 277S117 295 115 303S110 323 109 331S106 353 105 362S104 388 104 400S104 429 105 438S108 461 109 469S114 490 116 498S121 519 124 528S133 551 136 559S144 577 146 582S154 596 157 601S167 617 172 625S185 644 189 649S201 663 206 669S220 685 227 692S244 708 250 713S266 725 273 730S290 742 295 745S310 754 316 757S333 767 341 770S361 778 368 781S388 787 397 790S420 796 428 798S449 802 458 803S477 805 479 805S494 806 508 806zM518 743H488S469 741 461 740S440 737 433 735S414 730 407 728S389 721 383 719S365 712 357 708S338 698 333 695S321 687 317 684S305 676 300 672S291 664 291 664L533 422L774 180L778 184C780 186 784 193 788 198S797 212 801 218S811 236 816 245S827 267 829 273S836 290 838 297S843 316 845 323S849 343 850 351S852 372 853 382C854 394 854 406 853 418C852 428 851 441 850 449S847 470 845 477S839 496 837 504S830 523 828 529S821 547 816 556S805 577 801 583S791 598 786 604S775 620 771 624S757 639 749 647S729 666 723 670S708 680 704 683S692 692 687 695S671 703 664 707S646 716 640 718S623 725 616 727S600 732 594 733S578 737 572 738S555 740 548 741S527 743 518 743zM246 619S242 615 238 610S229 597 226 593S218 582 215 577S207 561 203 554S194 536 192 530S185 513 183 506S178 490 177 484S174 470 173 465S170 452 169 446S168 427 167 417C166 405 166 394 167 382C168 372 169 359 170 351S173 330 175 323S180 302 183 294S190 274 192 269S199 253 203 246S212 228 215 223S224 210 227 206S236 193 240 187S257 167 267 157C278 146 292 135 298 130S313 118 318 115S331 107 336 104S353 94 362 90S384 81 391 78S410 72 416 70S433 65 440 64S458 61 464 60S483 58 492 57S513 57 520 57S538 57 544 58S561 61 569 62S587 66 593 67S609 71 616 73S633 80 639 82S657 89 664 93S682 102 687 105S699 113 703 116S715 124 720 128S729 136 729 136S621 245 488 378S246 619 246 619z" />
    <glyph glyph-name="battery-1"
      unicode="&#xEA2F;"
      horiz-adv-x="1010" d="M488 640C643 640 724 640 730 639C735 638 743 637 747 636S759 632 764 630S777 623 782 620S794 611 799 606S810 594 813 590S818 580 820 577S825 569 826 565S829 555 830 550S833 536 833 528L834 514L840 512C843 511 848 508 850 507S856 503 858 501S864 494 866 491S871 482 872 478L874 472V328L872 322C871 318 868 312 866 309S860 301 858 299S852 294 850 293S843 289 840 288L834 286L833 272C833 264 831 255 830 250S827 239 826 235S822 226 820 223S816 214 813 210S804 199 799 194S787 183 782 180S769 172 764 170S751 165 747 164S734 162 729 161C722 160 643 160 482 160L246 161L236 163C231 164 225 166 221 167S212 171 208 173S197 179 193 182S183 190 180 193S171 202 168 206S161 217 158 222S152 234 151 238S148 248 147 253C145 261 146 270 146 400S145 539 147 547C148 552 151 558 152 562S156 574 159 579S167 592 171 597S183 610 188 614S201 623 207 626S222 633 226 634S236 637 240 638S248 639 250 639S359 640 488 640zM492 577C289 577 253 576 248 575C245 574 239 573 236 571S226 565 223 562S216 552 214 549S211 541 210 537C209 531 208 513 208 400S209 269 210 263C211 259 212 254 214 251S220 241 223 238S233 231 236 229S244 226 248 225C254 224 282 223 492 223L730 224L735 226C738 227 743 229 746 231S753 237 756 240S763 248 764 251S767 259 768 262C769 266 770 272 770 282C770 290 770 300 771 304S774 313 776 318C779 323 782 328 786 332C789 335 793 339 796 341S804 345 807 346L812 347V453L806 455C803 456 798 458 795 460S788 466 785 469S778 478 776 482C774 487 772 492 771 496S770 510 770 518C770 528 769 534 768 538C767 541 765 546 764 549S759 557 756 560S749 567 746 569S738 573 735 574L730 576zM304 514C301 514 297 515 295 514S289 512 287 511S282 507 279 504S273 497 272 494C270 489 270 486 270 400S270 311 272 306C273 303 276 298 279 295S286 289 289 288C293 286 297 286 302 286C308 286 309 286 315 289C320 291 323 293 326 297C328 300 330 304 331 307C332 311 333 325 333 400S332 489 331 493C330 496 328 500 326 503C323 506 320 509 316 511S307 514 304 514z" />
    <glyph glyph-name="battery-2"
      unicode="&#xEA30;"
      horiz-adv-x="1010" d="M488 640C643 640 724 640 730 639C735 638 743 637 747 636S759 632 764 630S777 623 782 620S794 611 799 606S810 594 813 590S818 580 820 577S825 569 826 565S829 555 830 550S833 536 833 528L834 514L840 512C843 511 848 508 850 507S856 503 858 501S864 494 866 491S871 482 872 478L874 472V328L872 322C871 318 868 312 866 309S860 301 858 299S852 294 850 293S843 289 840 288L834 286L833 272C833 264 831 255 830 250S827 239 826 235S822 226 820 223S816 214 813 210S804 199 799 194S787 183 782 180S769 172 764 170S751 165 747 164S734 162 729 161C722 160 643 160 482 160L246 161L236 163C231 164 225 166 221 167S212 171 208 173S197 179 193 182S183 190 180 193S171 202 168 206S161 217 158 222S152 234 151 238S148 248 147 253C145 261 146 270 146 400S145 539 147 547C148 552 151 558 152 562S156 574 159 579S167 592 171 597S183 610 188 614S201 623 207 626S222 633 226 634S236 637 240 638S248 639 250 639S359 640 488 640zM492 577C289 577 253 576 248 575C245 574 239 573 236 571S226 565 223 562S216 552 214 549S211 541 210 537C209 531 208 513 208 400S209 269 210 263C211 259 212 254 214 251S220 241 223 238S233 231 236 229S244 226 248 225C254 224 282 223 492 223L730 224L735 226C738 227 743 229 746 231S753 237 756 240S763 248 764 251S767 259 768 262C769 266 770 272 770 282C770 290 770 300 771 304S774 313 776 318C779 323 782 328 786 332C789 335 793 339 796 341S804 345 807 346L812 347V453L806 455C803 456 798 458 795 460S788 466 785 469S778 478 776 482C774 487 772 492 771 496S770 510 770 518C770 528 769 534 768 538C767 541 765 546 764 549S759 557 756 560S749 567 746 569S738 573 735 574L730 576zM304 514C307 514 312 513 316 511S323 506 326 503C328 500 330 496 331 493C332 489 333 475 333 400S332 311 331 307C330 304 328 300 326 297C323 293 320 291 315 289C309 286 308 286 302 286C297 286 293 286 289 288C286 289 282 292 279 295S273 303 272 306C270 311 270 314 270 400S270 489 272 494C273 497 276 501 279 504S285 510 287 511S293 513 295 514S301 514 304 514zM429 514C426 514 422 515 420 514S414 512 412 511S407 507 404 504S398 497 397 494C395 489 396 486 396 400S395 311 397 306C398 303 401 298 404 295S411 289 414 288C418 286 422 286 427 286C433 286 434 286 440 289C445 291 448 293 451 297C453 300 455 304 456 307C457 311 458 325 458 400S457 489 456 493C455 496 453 500 451 503C448 506 445 509 441 511S432 514 429 514z" />
    <glyph glyph-name="battery-3"
      unicode="&#xEA31;"
      horiz-adv-x="1010" d="M488 640C643 640 724 640 730 639C735 638 743 637 747 636S759 632 764 630S777 623 782 620S794 611 799 606S810 594 813 590S818 580 820 577S825 569 826 565S829 555 830 550S833 536 833 528L834 514L840 512C843 511 848 508 850 507S856 503 858 501S864 494 866 491S871 482 872 478L874 472V328L872 322C871 318 868 312 866 309S860 301 858 299S852 294 850 293S843 289 840 288L834 286L833 272C833 264 831 255 830 250S827 239 826 235S822 226 820 223S816 214 813 210S804 199 799 194S787 183 782 180S769 172 764 170S751 165 747 164S734 162 729 161C722 160 643 160 482 160L246 161L236 163C231 164 225 166 221 167S212 171 208 173S197 179 193 182S183 190 180 193S171 202 168 206S161 217 158 222S152 234 151 238S148 248 147 253C145 261 146 270 146 400S145 539 147 547C148 552 151 558 152 562S156 574 159 579S167 592 171 597S183 610 188 614S201 623 207 626S222 633 226 634S236 637 240 638S248 639 250 639S359 640 488 640zM492 577C289 577 253 576 248 575C245 574 239 573 236 571S226 565 223 562S216 552 214 549S211 541 210 537C209 531 208 513 208 400S209 269 210 263C211 259 212 254 214 251S220 241 223 238S233 231 236 229S244 226 248 225C254 224 282 223 492 223L730 224L735 226C738 227 743 229 746 231S753 237 756 240S763 248 764 251S767 259 768 262C769 266 770 272 770 282C770 290 770 300 771 304S774 313 776 318C779 323 782 328 786 332C789 335 793 339 796 341S804 345 807 346L812 347V453L806 455C803 456 798 458 795 460S788 466 785 469S778 478 776 482C774 487 772 492 771 496S770 510 770 518C770 528 769 534 768 538C767 541 765 546 764 549S759 557 756 560S749 567 746 569S738 573 735 574L730 576zM304 514C307 514 312 513 316 511S323 506 326 503C328 500 330 496 331 493C332 489 333 475 333 400S332 311 331 307C330 304 328 300 326 297C323 293 320 291 315 289C309 286 308 286 302 286C297 286 293 286 289 288C286 289 282 292 279 295S273 303 272 306C270 311 270 314 270 400S270 489 272 494C273 497 276 501 279 504S285 510 287 511S293 513 295 514S301 514 304 514zM429 514C432 514 437 513 441 511S448 506 451 503C453 500 455 496 456 493C457 489 458 475 458 400S457 311 456 307C455 304 453 300 451 297C448 293 445 291 440 289C434 286 433 286 427 286C422 286 418 286 414 288C411 289 407 292 404 295S398 303 397 306C395 311 396 314 396 400S395 489 397 494C398 497 401 501 404 504S410 510 412 511S418 513 420 514S426 514 429 514zM554 514C551 514 547 515 545 514S539 512 537 511S532 507 529 504S523 497 522 494C520 489 520 486 520 400S520 311 522 306C523 303 526 298 529 295S536 289 539 288C543 286 547 286 552 286C558 286 559 286 565 289C570 291 573 293 576 297C578 300 580 304 581 307C582 311 583 325 583 400S582 489 581 493C580 496 578 500 576 503C573 506 570 509 566 511S557 514 554 514z" />
    <glyph glyph-name="battery-4"
      unicode="&#xEA32;"
      horiz-adv-x="1010" d="M488 640C643 640 724 640 730 639C735 638 743 637 747 636S759 632 764 630S777 623 782 620S794 611 799 606S810 594 813 590S818 580 820 577S825 569 826 565S829 555 830 550S833 536 833 528L834 514L840 512C843 511 848 508 850 507S856 503 858 501S864 494 866 491S871 482 872 478L874 472V328L872 322C871 318 868 312 866 309S860 301 858 299S852 294 850 293S843 289 840 288L834 286L833 272C833 264 831 255 830 250S827 239 826 235S822 226 820 223S816 214 813 210S804 199 799 194S787 183 782 180S769 172 764 170S751 165 747 164S734 162 729 161C722 160 643 160 482 160L246 161L236 163C231 164 225 166 221 167S212 171 208 173S197 179 193 182S183 190 180 193S171 202 168 206S161 217 158 222S152 234 151 238S148 248 147 253C145 261 146 270 146 400S145 539 147 547C148 552 151 558 152 562S156 574 159 579S167 592 171 597S183 610 188 614S201 623 207 626S222 633 226 634S236 637 240 638S248 639 250 639S359 640 488 640zM492 577C289 577 253 576 248 575C245 574 239 573 236 571S226 565 223 562S216 552 214 549S211 541 210 537C209 531 208 513 208 400S209 269 210 263C211 259 212 254 214 251S220 241 223 238S233 231 236 229S244 226 248 225C254 224 282 223 492 223L730 224L735 226C738 227 743 229 746 231S753 237 756 240S763 248 764 251S767 259 768 262C769 266 770 272 770 282C770 290 770 300 771 304S774 313 776 318C779 323 782 328 786 332C789 335 793 339 796 341S804 345 807 346L812 347V453L806 455C803 456 798 458 795 460S788 466 785 469S778 478 776 482C774 487 772 492 771 496S770 510 770 518C770 528 769 534 768 538C767 541 765 546 764 549S759 557 756 560S749 567 746 569S738 573 735 574L730 576zM304 514C307 514 312 513 316 511S323 506 326 503C328 500 330 496 331 493C332 489 333 475 333 400S332 311 331 307C330 304 328 300 326 297C323 293 320 291 315 289C309 286 308 286 302 286C297 286 293 286 289 288C286 289 282 292 279 295S273 303 272 306C270 311 270 314 270 400S270 489 272 494C273 497 276 501 279 504S285 510 287 511S293 513 295 514S301 514 304 514zM429 514C432 514 437 513 441 511S448 506 451 503C453 500 455 496 456 493C457 489 458 475 458 400S457 311 456 307C455 304 453 300 451 297C448 293 445 291 440 289C434 286 433 286 427 286C422 286 418 286 414 288C411 289 407 292 404 295S398 303 397 306C395 311 396 314 396 400S395 489 397 494C398 497 401 501 404 504S410 510 412 511S418 513 420 514S426 514 429 514zM554 514C557 514 562 513 566 511S573 506 576 503C578 500 580 496 581 493C582 489 583 475 583 400S582 311 581 307C580 304 578 300 576 297C573 293 570 291 565 289C559 286 558 286 552 286C547 286 543 286 539 288C536 289 532 292 529 295S523 303 522 306C520 311 520 314 520 400S520 489 522 494C523 497 526 501 529 504S535 510 537 511S543 513 545 514S551 514 554 514zM679 514C676 514 672 515 670 514S664 512 662 511S657 507 654 504S648 497 647 494C645 489 646 486 646 400S645 311 647 306C648 303 651 298 654 295S661 289 664 288C668 286 672 286 677 286C683 286 684 286 690 289C695 291 698 293 701 297C703 300 705 304 706 307C707 311 708 325 708 400S707 489 706 493C705 496 703 500 701 503C698 506 695 509 691 511S682 514 679 514z" />
    <glyph glyph-name="battery-charging"
      unicode="&#xEA33;"
      horiz-adv-x="1010" d="M302 640C350 640 351 639 356 637C359 636 362 633 365 630S371 624 372 621C374 617 374 613 374 608C374 602 374 601 371 595C369 590 367 587 363 584C360 582 356 580 353 579C349 578 340 577 301 577C263 577 253 576 248 575C244 574 239 573 236 571S226 565 223 562S216 552 214 549S211 541 210 537C209 531 208 513 208 400S209 269 210 263C211 259 212 254 214 251S219 243 222 240S230 233 233 231S241 227 244 226C249 224 253 223 280 223L310 222L315 220C318 218 323 215 325 213S329 206 330 204S333 197 333 194C333 190 333 187 332 183C331 180 328 175 326 172C323 168 320 166 315 164L309 160L278 161C253 161 246 161 239 162C234 163 227 166 223 167S212 171 208 173S197 179 193 182S183 190 179 194S170 204 167 208S160 220 158 224S152 234 151 238S148 248 147 253C145 261 146 270 146 400S145 539 147 547C148 552 151 558 152 562S156 574 159 579S167 592 171 597S183 610 188 614S201 623 207 626S222 633 226 634S236 637 240 638S248 639 250 639S275 640 302 640zM698 640C711 640 725 640 730 639S743 637 747 636S759 632 764 630S777 623 782 620S794 611 799 606S810 594 813 590S818 580 820 577S825 569 826 565S829 555 830 550S833 536 833 528L834 514L840 512C843 511 848 508 850 507S856 503 858 501S864 494 866 491S871 482 872 478L874 472V328L872 322C871 318 868 312 866 309S860 301 858 299S852 294 850 293S843 289 840 288L834 286L833 272C833 264 831 255 830 250S827 239 826 235S822 226 820 223S816 214 813 210S804 199 799 194S787 183 782 180S771 173 767 171S757 167 754 166S745 163 740 162C732 160 727 160 680 160C629 160 628 161 623 163C620 164 616 167 614 169S609 175 607 178C605 183 604 186 604 191C604 195 605 199 606 202S609 209 612 212S618 219 621 220L626 222L678 223C727 224 730 224 735 226C738 227 743 229 746 231S753 237 756 240S763 248 764 251S767 259 768 262C769 266 770 272 770 282C770 290 770 300 771 304S774 313 776 318C779 323 782 328 786 332C789 335 793 339 796 341S804 345 807 346L812 347V453L806 455C803 456 798 458 795 460S788 466 785 469S778 478 776 482C774 487 772 492 771 496S770 510 770 518C770 528 769 534 768 538C767 541 765 546 764 549S759 557 756 560S749 567 746 569S738 573 735 574C730 576 727 576 699 577C673 578 668 578 665 579C663 580 658 583 656 585C653 587 651 591 649 595C646 601 646 602 646 608C646 613 646 616 648 620C649 623 652 628 654 630S660 635 662 636S668 639 670 639S685 640 698 640zM512 598C508 598 503 597 502 597S497 595 495 594S489 591 487 588C484 584 473 564 439 496L396 408V400C396 394 397 391 398 388S402 381 404 379S411 374 414 372L420 369H501L469 305L438 242V234C438 228 438 225 440 221C441 218 443 214 445 212S452 206 455 205S463 202 466 202C470 202 473 202 477 203C480 204 485 207 488 209C493 213 494 214 538 302L582 392V400C582 407 582 410 580 414C579 417 575 420 572 423S565 428 562 429C558 430 552 431 518 431C492 431 478 431 478 432S493 461 510 496L541 559V566C541 570 540 574 539 577S536 584 533 587S527 594 524 595C520 597 517 598 512 598z" />
    </font>
</defs>
</svg>
